+ ตอบกลับกระทู้
สรุปผลการค้นหา 1 ถึง 2 จากทั้งหมด 2
  1. #1
    Administrators รูปส่วนตัว Duckload.us
    สมัครเมื่อ
    Dec 2010
    โพสต์
    152,147
    Thanks
    7
    Thanked 159,124 Times in 69,603 Posts

    Lightbulb [ฝรั่ง]-[PRIME]-[AI VFI]-[Double Frame Rate]-[48-50FPS] John Wick Chapter 1-4 [Collection 2014-2023]-[เสียง : ไทย/อังกฤษ]-[บรรยาย : ไทย/อังกฤษ SRT]-WEB-DL.H.265.1080p. [Modified]-[พากย์ไทย บรรยายไทย]





    Quote:
    John Wick (2014)_50FPS.mkv
    Format : Matroska
    Format version : Version 4
    File size : 3.70 GiB
    Duration : 1 h 37 min
    Overall bit rate : 5 464 kb/s
    Frame rate : 50.000 FPS
    Movie name : John Wick_50FPS
    Encoded date : 2024-05-28 06:09:10 UTC
    Writing application : mkvmerge v84.0 ('Sleeper') 64-bit
    Writing library : libebml v1.4.5 + libmatroska v1.7.1
    Cover : Yes
    Attachments : cover.png

    Video
    ID : 1
    Format : HEVC
    Format/Info : High Efficiency Video Coding
    Format profile : [email protected]@Main
    Codec ID : V_MPEGH/ISO/HEVC
    Duration : 1 h 37 min
    Bit rate : 5 138 kb/s
    Width : 1 920 pixels
    Height : 800 pixels
    Display aspect ratio : 2.40:1
    Frame rate mode : Constant
    Frame rate : 50.000 FPS
    Color space : YUV
    Chroma subsampling : 4:2:0
    Bit depth : 8 bits
    Bits/(Pixel*Frame) : 0.067
    Stream size : 3.48 GiB (94%)
    Default : Yes
    Forced : No

    Audio #1
    ID : 2
    Format : AAC LC
    Format/Info : Advanced Audio Codec Low Complexity
    Codec ID : A_AAC-2
    Duration : 1 h 37 min
    Bit rate : 128 kb/s
    Channel(s) : 2 channels
    Channel layout : L R
    Sampling rate : 48.0 kHz
    Frame rate : 46.875 FPS (1024 SPF)
    Compression mode : Lossy
    Delay relative to video : 14 ms
    Stream size : 89.2 MiB (2%)
    Language : Thai
    Default : Yes
    Forced : No

    Audio #2
    ID : 3
    Format : AAC LC
    Format/Info : Advanced Audio Codec Low Complexity
    Codec ID : A_AAC-2
    Duration : 1 h 37 min
    Bit rate : 192 kb/s
    Channel(s) : 2 channels
    Channel layout : L R
    Sampling rate : 48.0 kHz
    Frame rate : 46.875 FPS (1024 SPF)
    Compression mode : Lossy
    Delay relative to video : 14 ms
    Stream size : 134 MiB (4%)
    Language : English
    Default : Yes
    Forced : No

    Text #1
    ID : 4
    Format : UTF-8
    Codec ID : S_TEXT/UTF8
    Codec ID/Info : UTF-8 Plain Text
    Duration : 1 h 29 min
    Bit rate : 21 b/s
    Frame rate : 0.110 FPS
    Count of elements : 595
    Stream size : 14.1 KiB (0%)
    Language : English
    Default : No
    Forced : No

    Text #2
    ID : 5
    Format : UTF-8
    Codec ID : S_TEXT/UTF8
    Codec ID/Info : UTF-8 Plain Text
    Duration : 1 h 29 min
    Bit rate : 55 b/s
    Frame rate : 0.120 FPS
    Count of elements : 647
    Stream size : 36.5 KiB (0%)
    Language : Thai
    Default : Yes
    Forced : No





    Quote:
    John Wick Chapter 2 (2017)_50FPS.mkv
    Format : Matroska
    Format version : Version 4
    File size : 4.47 GiB
    Duration : 1 h 57 min
    Overall bit rate : 5 455 kb/s
    Frame rate : 50.000 FPS
    Movie name : John Wick Chapter 2_50FPS
    Encoded date : 2024-05-28 06:01:01 UTC
    Writing application : mkvmerge v84.0 ('Sleeper') 64-bit
    Writing library : libebml v1.4.5 + libmatroska v1.7.1 / Lavf58.49.100
    Cover : Yes
    Attachments : cover.png / Cover

    Video
    ID : 1
    Format : HEVC
    Format/Info : High Efficiency Video Coding
    Format profile : [email protected]@Main
    Codec ID : V_MPEGH/ISO/HEVC
    Duration : 1 h 57 min
    Bit rate : 5 129 kb/s
    Width : 1 920 pixels
    Height : 800 pixels
    Display aspect ratio : 2.40:1
    Frame rate mode : Constant
    Frame rate : 50.000 FPS
    Color space : YUV
    Chroma subsampling : 4:2:0
    Bit depth : 8 bits
    Bits/(Pixel*Frame) : 0.067
    Stream size : 4.20 GiB (94%)
    Default : Yes
    Forced : No

    Audio #1
    ID : 2
    Format : AAC LC
    Format/Info : Advanced Audio Codec Low Complexity
    Codec ID : A_AAC-2
    Duration : 1 h 57 min
    Bit rate : 129 kb/s
    Channel(s) : 2 channels
    Channel layout : L R
    Sampling rate : 48.0 kHz
    Frame rate : 46.875 FPS (1024 SPF)
    Compression mode : Lossy
    Delay relative to video : 14 ms
    Stream size : 108 MiB (2%)
    Language : Thai
    Default : Yes
    Forced : No

    Audio #2
    ID : 3
    Format : AAC LC
    Format/Info : Advanced Audio Codec Low Complexity
    Codec ID : A_AAC-2
    Duration : 1 h 57 min
    Bit rate : 192 kb/s
    Channel(s) : 2 channels
    Channel layout : L R
    Sampling rate : 48.0 kHz
    Frame rate : 46.875 FPS (1024 SPF)
    Compression mode : Lossy
    Delay relative to video : 14 ms
    Stream size : 162 MiB (4%)
    Language : English
    Default : Yes
    Forced : No

    Text #1
    ID : 4
    Format : UTF-8
    Codec ID : S_TEXT/UTF8
    Codec ID/Info : UTF-8 Plain Text
    Duration : 1 h 45 min
    Bit rate : 22 b/s
    Frame rate : 0.091 FPS
    Count of elements : 577
    Stream size : 17.2 KiB (0%)
    Language : English
    Default : No
    Forced : No

    Text #2
    ID : 5
    Format : UTF-8
    Codec ID : S_TEXT/UTF8
    Codec ID/Info : UTF-8 Plain Text
    Duration : 1 h 45 min
    Bit rate : 56 b/s
    Frame rate : 0.113 FPS
    Count of elements : 720
    Stream size : 43.7 KiB (0%)
    Language : Thai
    Default : Yes
    Forced : No





    Quote:
    John Wick Chapter 3 - Parabellum (2019)_50FPS.mkv
    Format : Matroska
    Format version : Version 4
    File size : 4.79 GiB
    Duration : 2 h 5 min
    Overall bit rate : 5 467 kb/s
    Frame rate : 50.000 FPS
    Movie name : John Wick Chapter 3 - Parabellum_50FPS
    Encoded date : 2024-05-28 06:11:25 UTC
    Writing application : mkvmerge v84.0 ('Sleeper') 64-bit
    Writing library : libebml v1.4.5 + libmatroska v1.7.1
    Cover : Yes
    Attachments : cover.png

    Video
    ID : 1
    Format : HEVC
    Format/Info : High Efficiency Video Coding
    Format profile : [email protected]@Main
    Codec ID : V_MPEGH/ISO/HEVC
    Duration : 2 h 5 min
    Bit rate : 5 141 kb/s
    Width : 1 920 pixels
    Height : 800 pixels
    Display aspect ratio : 2.40:1
    Frame rate mode : Constant
    Frame rate : 50.000 FPS
    Color space : YUV
    Chroma subsampling : 4:2:0
    Bit depth : 8 bits
    Bits/(Pixel*Frame) : 0.067
    Stream size : 4.50 GiB (94%)
    Default : Yes
    Forced : No

    Audio #1
    ID : 2
    Format : AAC LC
    Format/Info : Advanced Audio Codec Low Complexity
    Codec ID : A_AAC-2
    Duration : 2 h 5 min
    Bit rate : 129 kb/s
    Channel(s) : 2 channels
    Channel layout : L R
    Sampling rate : 48.0 kHz
    Frame rate : 46.875 FPS (1024 SPF)
    Compression mode : Lossy
    Delay relative to video : 14 ms
    Stream size : 115 MiB (2%)
    Language : Thai
    Default : Yes
    Forced : No

    Audio #2
    ID : 3
    Format : AAC LC
    Format/Info : Advanced Audio Codec Low Complexity
    Codec ID : A_AAC-2
    Duration : 2 h 5 min
    Bit rate : 192 kb/s
    Channel(s) : 2 channels
    Channel layout : L R
    Sampling rate : 48.0 kHz
    Frame rate : 46.875 FPS (1024 SPF)
    Compression mode : Lossy
    Delay relative to video : 14 ms
    Stream size : 173 MiB (4%)
    Language : English
    Default : Yes
    Forced : No

    Text #1
    ID : 4
    Format : UTF-8
    Codec ID : S_TEXT/UTF8
    Codec ID/Info : UTF-8 Plain Text
    Duration : 1 h 55 min
    Bit rate : 25 b/s
    Frame rate : 0.107 FPS
    Count of elements : 738
    Stream size : 21.2 KiB (0%)
    Language : English
    Default : No
    Forced : No

    Text #2
    ID : 5
    Format : UTF-8
    Codec ID : S_TEXT/UTF8
    Codec ID/Info : UTF-8 Plain Text
    Duration : 1 h 56 min
    Bit rate : 54 b/s
    Frame rate : 0.105 FPS
    Count of elements : 730
    Stream size : 46.7 KiB (0%)
    Language : Thai
    Default : Yes
    Forced : No







    Quote:
    John Wick Chapter 4 (2023)_48FPS.mkv
    Format : Matroska
    Format version : Version 4
    File size : 7.45 GiB
    Duration : 2 h 49 min
    Overall bit rate : 6 304 kb/s
    Frame rate : 47.952 FPS
    Movie name : John Wick Chapter 4_48FPS
    Encoded date : 2024-05-27 16:11:51 UTC
    Writing application : mkvmerge v84.0 ('Sleeper') 64-bit
    Writing library : libebml v1.4.5 + libmatroska v1.7.1
    Cover : Yes
    Attachments : cover.png / Cover

    Video
    ID : 1
    Format : HEVC
    Format/Info : High Efficiency Video Coding
    Format profile : [email protected]@Main
    Codec ID : V_MPEGH/ISO/HEVC
    Duration : 2 h 49 min
    Bit rate : 5 148 kb/s
    Width : 1 920 pixels
    Height : 800 pixels
    Display aspect ratio : 2.40:1
    Frame rate mode : Constant
    Frame rate : 47.952 (47952/1000) FPS
    Color space : YUV
    Chroma subsampling : 4:2:0
    Bit depth : 8 bits
    Bits/(Pixel*Frame) : 0.070
    Stream size : 6.09 GiB (82%)
    Default : Yes
    Forced : No

    Audio #1
    ID : 2
    Format : DTS
    Format/Info : Digital Theater Systems
    Codec ID : A_DTS
    Duration : 2 h 49 min
    Bit rate mode : Constant
    Bit rate : 768 kb/s
    Channel(s) : 6 channels
    Channel layout : C L R Ls Rs LFE
    Sampling rate : 48.0 kHz
    Frame rate : 93.750 FPS (512 SPF)
    Bit depth : 16 bits
    Compression mode : Lossy
    Stream size : 930 MiB (12%)
    Title : DTS 5.1
    Language : English
    Default : Yes
    Forced : No

    Audio #2
    ID : 3
    Format : AC-3
    Format/Info : Audio Coding 3
    Commercial name : Dolby Digital
    Codec ID : A_AC3
    Duration : 2 h 49 min
    Bit rate mode : Constant
    Bit rate : 384 kb/s
    Channel(s) : 2 channels
    Channel layout : L R
    Sampling rate : 48.0 kHz
    Frame rate : 31.250 FPS (1536 SPF)
    Compression mode : Lossy
    Stream size : 465 MiB (6%)
    Title : DD 2.0
    Language : Thai
    Service kind : Complete Main
    Default : Yes
    Forced : No
    Dialog Normalization : -31 dB
    dialnorm_Average : -31 dB
    dialnorm_Minimum : -31 dB
    dialnorm_Maximum : -31 dB

    Text #1
    ID : 4
    Format : UTF-8
    Codec ID : S_TEXT/UTF8
    Codec ID/Info : UTF-8 Plain Text
    Duration : 2 h 48 min
    Bit rate : 27 b/s
    Frame rate : 0.158 FPS
    Count of elements : 1595
    Stream size : 34.3 KiB (0%)
    Language : English
    Default : No
    Forced : No

    Text #2
    ID : 5
    Format : UTF-8
    Codec ID : S_TEXT/UTF8
    Codec ID/Info : UTF-8 Plain Text
    Duration : 2 h 47 min
    Bit rate : 54 b/s
    Frame rate : 0.106 FPS
    Count of elements : 1068
    Stream size : 66.3 KiB (0%)
    Language : Thai
    Default : Yes
    Forced : No

    จอห์น วิค แรงกว่านรก (อังกฤษ: John Wick หรือ John Wick: Chapter 1) เป็นภาพยนตร์อเมริกันแนวนีโอนัวร์แอคชันระทึกขวัญที่ ออกฉายในปี ค.ศ. 2014 กำกับโดยแชด สตาเฮลสกี และเดวิด ลิตช์ นำแสดงโดย คีอานู รีฟส์, ไมเคิล นิกควิสต์, อัลฟี อัลเลน, แอเดรียน พาลิกกี, บริดเจต มอยนาแฮน, ดีน วินเทอส์, เอียน แมกเชน, จอห์น เลกีซาโม และวิลเลม เดโฟ จอห์น วิค แรงกว่านรก เป็นภาพยนตร์ลำดับแรกสุดในภาพยนตร์ชุด จอห์น วิค เล่าเรื่องของจอห์น วิค มือปืนฝีมือฉกาจที่วางมือแล้ว กลับจำเป็นต้องมาล้างแค้นให้กับโจรที่ขโมยรถและสังหา รสุนัขของเขา ซึ่งเป็นของขวัญที่ระลึกของภรรยาที่เสียชีวิต

    จอห์น วิค แรงกว่านรก เข้าฉายในสหรัฐ วันที่ 24 ตุลาคม 2014 มีภาคต่อมีชื่อเรื่องว่า จอห์น วิค แรงกว่านรก 2 ออกฉายเมื่อกุมภาพันธ์ 2017 ภาคสาม จอห์น วิค แรงกว่านรก 3 ออกฉายเมื่อพฤษภาคม 2019 และภาคสี่ จอห์น วิค แรงกว่านรก 4 ออกฉายเมื่อมีนาคม 2023

    ชี้แจง + คำเตือน
    1. ใช้ AI เพิ่ม FPS เพื่อความลื่นไหล เหมาะสำหรับคนชอบดูแบบลื่นตาแตก
    2. ไฟล์เล็ก แนะนำสำหรับคนที่ดูจอเล็กเท่านั้น
    3. ไฟล์อาจมี Artifact หรือกระตุกบางฉาก ผิดพลาดประการใดต้องขออภัยด้วยครับ

    CREDIT : PRIME


    John_Wick_Chapter_4_(2023)_48FPS.mkv
    http://www.filecondo.com/dl.php?f=hfdf4a1SeRHX

    John_Wick_Chapter_3_-_Parabellum_(2019)_50FPS.mkv
    http://www.filecondo.com/dl.php?f=qc1bca1SeRGQ

    John_Wick_Chapter_2_(2017)_50FPS.mkv
    http://www.filecondo.com/dl.php?f=Vc43ae1SeRFS

    John_Wick_(2014)_50FPS.mkv
    http://www.filecondo.com/dl.php?f=Rdb18b1SeRES

  2. The Following User Says Thank You to Duckload.us For This Useful Post:

    scsyn (06-09-2024)

  3. #2
    Junior Member
    สมัครเมื่อ
    Apr 2022
    ที่อยู่
    Usa
    โพสต์
    1
    Thanks
    0
    Thanked 0 Times in 0 Posts

    Prime asual Dating - Authentic Maidens

    Experience carefree connections with the top-rated site for casual dating adventures.
    Authentic Damsels
    Finest casual Dating

+ ตอบกลับกระทู้

ข้อมูลกระทู้

Users Browsing this Thread

ในขณะนี้มี 1 ท่านดูกระทู้อยู่. (0 สมาชิกและ 1 ผู้เยี่ยมชม)

     

กฎการโพสต์ข้อความ

  • ท่าน ไม่สามารถ ตั้งกระทู้ใหม่ได้
  • ท่าน ไม่สามารถ ตอบกระทู้ได้
  • ท่าน ไม่สามารถ แนบไฟล์ได้
  • ท่าน ไม่สามารถ แก้ไขข้อความโพสต์ได้
  • BB code สถานะ เปิด
  • Smilies สถานะ เปิด
  • [IMG] สถานะ เปิด
  • HTML สถานะ ปิด