+ ตอบกลับกระทู้
สรุปผลการค้นหา 1 ถึง 5 จากทั้งหมด 5
  1. #1
    Administrators รูปส่วนตัว Duckload.us
    สมัครเมื่อ
    Dec 2010
    โพสต์
    152,147
    Thanks
    7
    Thanked 159,125 Times in 69,604 Posts

    Lightbulb [ญี่ปุ่น]-Godzilla (1954) กำเนิดก็อดซิลล่า [*CRITERION VERSION*] [REMASTERED] -MiniBD.H.264.1080p. [Modified]-[พากย์ไทย บรรยายไทย]


    Quote:
    Godzilla (1954) กำเนิดก็อดซิลล่า

    เรื่องย่อ

    หลังจากที่ก็อดซิลล่านั้นปรากฏตัวและเริ่มต้นอาลาวาด ทำลายเมืองต่างๆนั้นยังได้เข้ามาถึงเมืองหลวงของญี่ป ุ่นโตเกียวซึ่งทางกองกำลังทหารนั้นต่างก็ออกมาช่วยกั นในการจัดการกับก็อตซิลลาแต่ไม่สามารถที่จะทำอะไรได้ เลย

    และจากนั้นจึงได้มีการนำอาวุธทำลายสูงที่เรียก ว่าออกซิเจน เดสทรอยเยอร์ที่สร้างขึ้นมาเพื่อทำลายก็อดซิลล่าโดยเ ฉพาะและหลังจากที่ได้ใช้อาวุธที่ทรงอานุภาพแล้วนั้นท ำให้สามารถที่จะขับไล่ก็อตซิลลาไปได้ทำให้ญี่ปุ่นนั้ นกลับเข้าสู่ความสงบอีกครั้งหนึ่งและก็อตซิลลาก็หายล ับไปในทะเลอันเงียบสงัดอีกครั้ง

    เหล่าเรือเดินทะเลต่างก็พากันหายสาบสูญเมื่อได้เดินท างเข้าใกล้กับเกาะโอจิม่า ทำให้มาซาชิ นักศึกษาเรื่องราวของสิ่งแปลกประหลาดนั้นเริ่มที่จะค ้นหาความจริงเกี่ยวกับเรื่องนี้ ต่อมาในค่ำคืนที่เกิดพายุรุนแรงบริเวณเกาะโอจิม่านั้ นได้เกิดเงาของสัตว์ประหลาดยักษ์ปรากฏขึ้นมาและจากนั ้นบริเวณที่อยู่ใกล้เคียงกับเกาะก็ถูกทำลายจนสิ้นและ จากผู้ที่ได้เห็นเหตุการณ์ว่าเป็นสัตว์ประหลาดที่อยู ่ในตำนานชื่อว่า ก็อดซิลล่า ที่หลับใหลอยู่ใต้ทะเลลึกต้องการที่จะขึ้นมาทำลายโลก และเมื่อข่าวแพร่ไปจนรู้ถึงด็อกเตอร์ยามาเนะที่สนใจเ รื่องราวนี้เป็นพิเศษจึงได้เริ่มต้นในการสืบหาความจร ิง

    Quote:
    Format : Matroska
    Format version : Version 4
    File size : 1.93 GiB
    Duration : 1 h 36 min
    Overall bit rate : 2 855 kb/s
    Movie name : Godzilla.1954.Criterion.JAPANESE.1080p.BluRay.H264 .AAC-VXT
    Encoded date : UTC 2024-06-03 15:07:05
    Writing application : mkvmerge v84.0 ('Sleeper') 64-bit
    Writing library : libebml v1.4.5 + libmatroska v1.7.1 / Lavf58.20.100
    Comment : Godzilla.1954.Criterion.JAPANESE.1080p.BluRay.H264 .AAC-VXT

    Video
    ID : 1
    Format : AVC
    Format/Info : Advanced Video Codec
    Format profile : [email protected]
    Format settings : CABAC / 4 Ref Frames
    Format settings, CABAC : Yes
    Format settings, Reference fra : 4 frames
    Codec ID : V_MPEG4/ISO/AVC
    Duration : 1 h 36 min
    Bit rate : 2 500 kb/s
    Width : 1 488 pixels
    Height : 1 080 pixels
    Display aspect ratio : 1.378
    Frame rate mode : Constant
    Frame rate : 23.976 (23976/1000) FPS
    Color space : YUV
    Chroma subsampling : 4:2:0
    Bit depth : 8 bits
    Scan type : Progressive
    Bits/(Pixel*Frame) : 0.065
    Stream size : 1.69 GiB (88%)
    Writing library : x264 core 152 r2851M ba24899
    Encoding settings : cabac=1 / ref=4 / deblock=1:-1:-1 / analyse=0x3:0x113 / me=umh / subme=9 / psy=1 / psy_rd=1.00:0.15 / mixed_ref=1 / me_range=24 / chroma_me=1 / trellis=2 / 8x8dct=1 / cqm=0 / deadzone=21,11 / fast_pskip=1 / chroma_qp_offset=-3 / threads=16 / lookahead_threads=4 / sliced_threads=0 / nr=0 / decimate=1 / interlaced=0 / bluray_compat=0 / constrained_intra=0 / bframes=3 / b_pyramid=2 / b_adapt=2 / b_bias=0 / direct=3 / weightb=1 / open_gop=0 / weightp=2 / keyint=250 / keyint_min=25 / scenecut=40 / intra_refresh=0 / rc_lookahead=50 / rc=2pass / mbtree=1 / bitrate=2500 / ratetol=1.0 / qcomp=0.60 / qpmin=0 / qpmax=69 / qpstep=4 / cplxblur=20.0 / qblur=0.5 / vbv_maxrate=31250 / vbv_bufsize=31250 / nal_hrd=none / filler=0 / ip_ratio=1.40 / aq=3:1.00
    Default : Yes
    Forced : No

    Audio #1
    ID : 2
    Format : AAC LC
    Format/Info : Advanced Audio Codec Low Complexity
    Codec ID : A_AAC-2
    Duration : 1 h 36 min
    Bit rate : 224 kb/s
    Channel(s) : 1 channel
    Channel layout : C
    Sampling rate : 48.0 kHz
    Frame rate : 46.875 FPS (1024 SPF)
    Compression mode : Lossy
    Delay relative to video : -43 ms
    Stream size : 155 MiB (8%)
    Language : Japanese
    Default : No
    Forced : No

    Audio #2
    ID : 3
    Format : AAC LC
    Format/Info : Advanced Audio Codec Low Complexity
    Codec ID : A_AAC-2
    Duration : 1 h 36 min
    Bit rate : 128 kb/s
    Channel(s) : 2 channels
    Channel layout : L R
    Sampling rate : 44.1 kHz
    Frame rate : 43.066 FPS (1024 SPF)
    Compression mode : Lossy
    Delay relative to video : 5 s 957 ms
    Stream size : 88.4 MiB (4%)
    Language : Thai
    Default : Yes
    Forced : No

    Text #1
    ID : 4
    Format : UTF-8
    Codec ID : S_TEXT/UTF8
    Codec ID/Info : UTF-8 Plain Text
    Duration : 1 h 33 min
    Bit rate : 117 b/s
    Frame rate : 0.123 FPS
    Count of elements : 687
    Stream size : 80.2 KiB (0%)
    Language : Thai
    Default : No
    Forced : No

    Text #2
    ID : 5
    Format : UTF-8
    Codec ID : S_TEXT/UTF8
    Codec ID/Info : UTF-8 Plain Text
    Duration : 1 h 36 min
    Bit rate : 60 b/s
    Frame rate : 0.125 FPS
    Count of elements : 721
    Stream size : 42.9 KiB (0%)
    Language : English
    Default : No
    Forced : No

    Quote:



    Godzilla_(1954)_กำเนิดก็อดซิลล่า.mkv
    http://www.filecondo.com/dl.php?f=0551b11SeRAU

    2.07 GB

  2. The Following 3 Users Say Thank You to Duckload.us For This Useful Post:

    Jodz14 (06-06-2024), scsyn (06-09-2024), Wesker_TOT (06-07-2024)

  3. #2
    Senior Member
    สมัครเมื่อ
    Dec 2013
    โพสต์
    6,290
    Thanks
    8,273
    Thanked 0 Times in 0 Posts
    ขอบคุณครับ...

  4. #3
    Junior Member
    สมัครเมื่อ
    May 2012
    โพสต์
    5
    Thanks
    0
    Thanked 0 Times in 0 Posts

    Finest ัasual Dating - Authentic Ladies

    Unlock a world of casual fun and excitement with the premier dating site.
    Actual Women
    Premier casual Dating

  5. #4
    Junior Member
    สมัครเมื่อ
    Apr 2019
    ที่อยู่
    Usa
    โพสต์
    3
    Thanks
    0
    Thanked 0 Times in 0 Posts

    Top-notch asual Dating - Actual Women

    Experience carefree connections with the top-rated site for casual dating adventures.
    Real-life Females
    Finest casual Dating

  6. #5
    Junior Member
    สมัครเมื่อ
    Nov 2019
    ที่อยู่
    GB
    โพสต์
    4
    Thanks
    0
    Thanked 0 Times in 0 Posts

    Beautiful Womans in your town for night


+ ตอบกลับกระทู้

ข้อมูลกระทู้

Users Browsing this Thread

ในขณะนี้มี 1 ท่านดูกระทู้อยู่. (0 สมาชิกและ 1 ผู้เยี่ยมชม)

     

กฎการโพสต์ข้อความ

  • ท่าน ไม่สามารถ ตั้งกระทู้ใหม่ได้
  • ท่าน ไม่สามารถ ตอบกระทู้ได้
  • ท่าน ไม่สามารถ แนบไฟล์ได้
  • ท่าน ไม่สามารถ แก้ไขข้อความโพสต์ได้
  • BB code สถานะ เปิด
  • Smilies สถานะ เปิด
  • [IMG] สถานะ เปิด
  • HTML สถานะ ปิด