Quote:
ในภาคต่อนี้ เควิน ฮาร์ต ซึ่งปัจจุบันเป็นดาราแอ็กชันที่ยิ่งใหญ่ที่สุดของโลก พบว่าตัวเองตกเป็นเหยื่อของแผนการแก้แค้นที่ชั่วร้าย และเขาต้องขอความช่วยเหลือจากดาราคู่ขวัญคนโปรด กับผู้ช่วยที่ทั้งอวยทั้งดันเกินเบอร์ของเขา ถ้าอยากมีชีวิตรอด

ผู้กำกับ
เอริค แอปเพล
ผู้อำนวยการสร้าง
เควิน ฮาร์ต, เอริค แอปเพล, ทริปเปอร์ แคลนซี, ไบรอัน สไมลีย์, ลุค เคลลี-ไคลน์, เจฟฟ์ แคลนาแกน, ไทย แรนดอล์ฟ, แคนดิซ วิลสัน เชอร์รี, เควิน ฮีลีย์, ไมค์ สไตน์, ไท วอล์คเกอร์
แสดงโดย
เควิน ฮาร์ต, นาตาลี เอ็มมานูเอล, เบน ชวอร์ตซ์
สตูดิโอ
Hartbeat, LLC
คำแนะนำสำหรับเนื้อหา
ภาพเปลือย, ความรุนแรง, มีการสูบบุหรี่, ภาษาหยาบคาย, เนื้อหาเรื่องเพศ

ชี้แจง + คำเตือน
1. ใช้ AI เพิ่ม FPS เพื่อความลื่นไหล เหมาะสำหรับคนชอบดูแบบลื่นตาแตก
2. ไฟล์เล็ก แนะนำสำหรับคนที่ดูจอเล็กเท่านั้น จอใหญ่ภาพจะแตก
3. ไฟล์อาจมี Artifact หรือกระตุกบางฉาก ผิดพลาดประการใดต้องขออภัยด้วยครับ

CREDIT : PRIME





Quote:
Die Hart 2 Die Harter_48FPS.mkv
Format : Matroska
Format version : Version 4
File size : 4.62 GiB
Duration : 1 h 32 min
Overall bit rate : 7 132 kb/s
Frame rate : 47.446 FPS
Movie name : Die Hart 2 Die Harter_48FPS
Encoded date : 2024-05-30 17:49:08 UTC
Writing application : mkvmerge v84.0 ('Sleeper') 64-bit
Writing library : libebml v1.4.5 + libmatroska v1.7.1
Cover : Yes
Attachments : cover.png / cover.jpg

Video
ID : 1
Format : HEVC
Format/Info : High Efficiency Video Coding
Format profile : [email protected]@Main
Codec ID : V_MPEGH/ISO/HEVC
Duration : 1 h 32 min
Bit rate : 6 361 kb/s
Width : 1 920 pixels
Height : 1 080 pixels
Display aspect ratio : 16:9
Frame rate mode : Variable
Frame rate : 47.446 FPS
Original frame rate : 47.952 (47952/1000) FPS
Color space : YUV
Chroma subsampling : 4:2:0
Bit depth : 8 bits
Bits/(Pixel*Frame) : 0.065
Stream size : 4.12 GiB (89%)
Default : Yes
Forced : No

Audio #1
ID : 2
Format : AAC LC
Format/Info : Advanced Audio Codec Low Complexity
Codec ID : A_AAC-2
Duration : 1 h 32 min
Bit rate : 128 kb/s
Channel(s) : 2 channels
Channel layout : L R
Sampling rate : 44.1 kHz
Frame rate : 43.066 FPS (1024 SPF)
Compression mode : Lossy
Delay relative to video : -3 ms
Stream size : 84.6 MiB (2%)
Title : Thai
Language : Thai
Default : Yes
Forced : No

Audio #2
ID : 3
Format : E-AC-3
Format/Info : Enhanced AC-3
Commercial name : Dolby Digital Plus
Codec ID : A_EAC3
Duration : 1 h 32 min
Bit rate mode : Constant
Bit rate : 640 kb/s
Channel(s) : 6 channels
Channel layout : L R C LFE Ls Rs
Sampling rate : 48.0 kHz
Frame rate : 31.250 FPS (1536 SPF)
Compression mode : Lossy
Delay relative to video : -9 ms
Stream size : 424 MiB (9%)
Title : English
Language : English
Service kind : Complete Main
Default : No
Forced : No
Dialog Normalization : -31 dB
compr : -0.28 dB
dialnorm_Average : -31 dB
dialnorm_Minimum : -31 dB
dialnorm_Maximum : -31 dB

Text #1
ID : 4
Format : UTF-8
Codec ID : S_TEXT/UTF8
Codec ID/Info : UTF-8 Plain Text
Duration : 1 h 30 min
Bit rate : 108 b/s
Frame rate : 0.411 FPS
Count of elements : 2242
Stream size : 72.3 KiB (0%)
Language : English
Default : Yes
Forced : No

Text #2
ID : 5
Format : UTF-8
Codec ID : S_TEXT/UTF8
Codec ID/Info : UTF-8 Plain Text
Duration : 1 h 30 min
Bit rate : 215 b/s
Frame rate : 0.295 FPS
Count of elements : 1608
Stream size : 144 KiB (0%)
Title : Thai TTML
Language : Thai
Default : Yes
Forced : No


Die_Hart_2_Die_Harter_48FPS.mkv
http://www.filecondo.com/dl.php?f=lb99cc1SeRA5

4.96 GB