+ ตอบกลับกระทู้
สรุปผลการค้นหา 1 ถึง 8 จากทั้งหมด 8
  1. #1
    Administrators รูปส่วนตัว Duckload.us
    สมัครเมื่อ
    Dec 2010
    โพสต์
    152,672
    Thanks
    7
    Thanked 159,865 Times in 69,929 Posts

    Lightbulb [ฝรั่ง]-[AMZN] The Boys (2024) ก๊วนหนุ่มซ่าล่าซูเปอร์ฮีโร่ S04EP01-08 END [เสียง:อังกฤษ-ไทย AC-3 5.1][บรรยาย: ไทย PGS และ ไทย/อังกฤษ SRT]-WEB-DL.H.264.1080p. [From HD-TV]-[พากย์ไทย บรรยายไทย]




    เรื่องย่อ
    โลกกำลังเข้าตาจน วิกตอเรีย นิวแมนเข้าใกล้ทำเนียบขาวแค่เอื้อมและอยู่ภายใต้อิทธ ิพลมืดของโฮมแลนเดอร์ที่กำลังรวบอำนาจเบ็ดเสร็จ บุตเชอร์ที่มีชีวิตอยู่ได้อีกไม่กี่เดือนต้องเสียลูก ชายของเบกก้าและตำแหน่ง The Boys ไป ส่วนชาวก๊วนที่เหลือก็เอือมกับคำโกหกของเขาเต็มทน ในยามที่เดิมพันสูงกว่าที่ทุกครั้ง พวกเขาจำต้องหาวิธีร่วมงานกันเพื่อกอบกู้โลกก่อนจะสา ยเกินไป


    Video
    ID : 1
    Format : AVC
    Format/Info : Advanced Video Codec
    Format profile : High@L4
    Format settings : CABAC / 4 Ref Frames
    Format settings, CABAC : Yes
    Format settings, Reference fra : 4 frames
    Codec ID : V_MPEG4/ISO/AVC
    Duration : 1 h 0 min
    Bit rate mode : Constant
    Bit rate : 7 047 kb/s
    Nominal bit rate : 10 000 kb/s
    Width : 1 920 pixels
    Height : 800 pixels
    Display aspect ratio : 2.40:1
    Frame rate mode : Constant
    Frame rate : 23.976 (24000/1001) FPS
    Color space : YUV
    Chroma subsampling : 4:2:0
    Bit depth : 8 bits
    Scan type : Progressive
    Bits/(Pixel*Frame) : 0.191
    Stream size : 2.98 GiB (84%)
    Default : Yes
    Forced : No
    Color range : Limited
    Color primaries : BT.709
    Transfer characteristics : BT.709
    Matrix coefficients : BT.709

    Audio #1
    ID : 2
    Format : E-AC-3
    Format/Info : Enhanced AC-3
    Commercial name : Dolby Digital Plus
    Codec ID : A_EAC3
    Duration : 1 h 0 min
    Bit rate mode : Constant
    Bit rate : 640 kb/s
    Channel(s) : 6 channels
    Channel layout : L R C LFE Ls Rs
    Sampling rate : 48.0 kHz
    Frame rate : 31.250 FPS (1536 SPF)
    Compression mode : Lossy
    Stream size : 277 MiB (8%)
    Title : [Thai-AC-3 5.1]
    Language : Thai
    Service kind : Complete Main
    Default : Yes
    Forced : No

    Audio #2
    ID : 3
    Format : E-AC-3
    Format/Info : Enhanced AC-3
    Commercial name : Dolby Digital Plus
    Codec ID : A_EAC3
    Duration : 1 h 0 min
    Bit rate mode : Constant
    Bit rate : 640 kb/s
    Channel(s) : 6 channels
    Channel layout : L R C LFE Ls Rs
    Sampling rate : 48.0 kHz
    Frame rate : 31.250 FPS (1536 SPF)
    Compression mode : Lossy
    Stream size : 277 MiB (8%)
    Title : [English-AC-3 5.1]
    Language : English
    Service kind : Complete Main
    Default : No
    Forced : No

    Text #1
    ID : 4
    Format : PGS
    Muxing mode : zlib
    Codec ID : S_HDMV/PGS
    Codec ID/Info : Picture based subtitle format used on BDs/HD-DVDs
    Duration : 44 min 46 s
    Bit rate : 6 244 b/s
    Count of elements : 132
    Stream size : 2.00 MiB (0%)
    Title : [Thai AMZN Forced PGS]
    Language : Thai
    Default : Yes
    Forced : No

    Text #2
    ID : 5
    Format : PGS
    Muxing mode : zlib
    Codec ID : S_HDMV/PGS
    Codec ID/Info : Picture based subtitle format used on BDs/HD-DVDs
    Duration : 56 min 36 s
    Bit rate : 71.5 kb/s
    Count of elements : 1852
    Stream size : 28.9 MiB (1%)
    Title : [Thai AMZN PGS]
    Language : Thai
    Default : No
    Forced : No

    Text #3
    ID : 6
    Format : UTF-8
    Codec ID : S_TEXT/UTF8
    Codec ID/Info : UTF-8 Plain Text
    Duration : 44 min 46 s
    Bit rate : 18 b/s
    Count of elements : 66
    Stream size : 6.22 KiB (0%)
    Title : Thai Forced SRT
    Language : Thai
    Default : No
    Forced : No

    Text #4
    ID : 7
    Format : UTF-8
    Codec ID : S_TEXT/UTF8
    Codec ID/Info : UTF-8 Plain Text
    Duration : 56 min 36 s
    Bit rate : 185 b/s
    Count of elements : 926
    Stream size : 76.9 KiB (0%)
    Title : Thai SRT
    Language : Thai
    Default : No
    Forced : No

    Text #5
    ID : 8
    Format : UTF-8
    Codec ID : S_TEXT/UTF8
    Codec ID/Info : UTF-8 Plain Text
    Duration : 35 min 41 s
    Bit rate : 2 b/s
    Count of elements : 25
    Stream size : 570 Bytes (0%)
    Title : English Forced SRT
    Language : English
    Default : No
    Forced : No

    Text #6
    ID : 9
    Format : UTF-8
    Codec ID : S_TEXT/UTF8
    Codec ID/Info : UTF-8 Plain Text
    Duration : 56 min 42 s
    Bit rate : 82 b/s
    Count of elements : 1085
    Stream size : 34.4 KiB (0%)
    Title : English SRT
    Language : English
    Default : No
    Forced : No



    S04E008_ตอนสุดท้ายซีซันสี่_by_MerkavaMII.mkv
    http://www.filecondo.com/dl.php?f=w6bbe71Suqkm

    The_Boys_(2024)_ก๊วนหนุ่มซ่าล่าซูเปอร์ฮีโร่_S04EP0 8_ตอนสุดท้ายซีซันสี่.1080p.Modified_By_mxn.mkv
    http://www.filecondo.com/dl.php?f=w0c2821Suqjj

    S04E007_คนวงใน_by_MerkavaMII.mkv
    http://www.filecondo.com/dl.php?f=Y3e84a1SsRFb

    The_Boys_(2024)_ก๊วนหนุ่มซ่าล่าซูเปอร์ฮีโร่_S04EP0 7_คนวงใน.1080p.Modified_By_mxn.mkv
    http://www.filecondo.com/dl.php?f=092a171SrSE7

    The.Boys.S04E07.The.Insider.1080p.AMZN.WEB-DL.DDP5.1.H.264-MESSI.mkv
    http://www.filecondo.com/dl.php?f=6fb3391SrSH4

    The_Boys_(2024)_ก๊วนหนุ่มซ่าล่าซูเปอร์ฮีโร่_S04EP0 6_งานสกปรก.1080p.Modified_By_mxn.mkv
    http://www.filecondo.com/dl.php?f=3ca7641Sq5S7

    S04E006_งานสกปรก_by_MerkavaMII.mkv
    http://www.filecondo.com/dl.php?f=Nf1a781Sq5Rb

    S04E005_ระวังเจ้าแจ็บเบอร์ว็อก_ลูกเอ๋ย_by_MerkavaM II.mkv
    http://www.filecondo.com/dl.php?f=y7ea231Snx0A

    The_Boys_(2024)_ก๊วนหนุ่มซ่าล่าซูเปอร์ฮีโร่_S04EP0 5_ระวังเจ้าแจ็บเบอร์ว็อก_ลูกเอ๋ย.1080p.Modified_By _mxn.mkv
    http://www.filecondo.com/dl.php?f=Z76ced1SnwWx

    The.Boys.S04E04.1080p.AMZN.APP-DL.DDP5.1.HEVC.H265.mkv
    http://www.filecondo.com/dl.php?f=wbb9b31SkgwI

    S04E004_ภูมิปัญญาแห่งกาล_by_MerkavaMII.mkv
    http://www.filecondo.com/dl.php?f=wd26bc1SkZuW

    The_Boys_(2024)_ก๊วนหนุ่มซ่าล่าซูเปอร์ฮีโร่_S04EP0 4_ภูมิปัญญาแห่งกาล.1080p.Modified_By_mxn.mkv
    http://www.filecondo.com/dl.php?f=s10d4b1SkgvT

    The_Boys_(2024)_ก๊วนหนุ่มซ่าล่าซูเปอร์ฮีโร่_S04EP0 3_เราจะให้ธงแดงปลิวไสวที่นี่.1080p.Modified_By_mxn .mkv
    http://www.filecondo.com/dl.php?f=P654781ShI6k

    The_Boys_(2024)_ก๊วนหนุ่มซ่าล่าซูเปอร์ฮีโร่_S04EP0 2_ชีวิตท่ามกลางบ่อเกรอะ.1080p.Modified_By_mxn.mkv
    http://www.filecondo.com/dl.php?f=611eac1ShI5x

    The_Boys_(2024)_ก๊วนหนุ่มซ่าล่าซูเปอร์ฮีโร่_S04EP0 1_งานสกปรก.1080p.Modified_By_mxn.mkv
    http://www.filecondo.com/dl.php?f=bd25091ShI4I

  2. The Following 5 Users Say Thank You to Duckload.us For This Useful Post:

    neorun (06-21-2024), petpina2010 (06-19-2024), rakterkonne (06-14-2024), sawara (07-16-2024), Wesker_TOT (06-19-2024)

  3. #2
    Senior Member รูปส่วนตัว petpina2010
    สมัครเมื่อ
    Jun 2020
    โพสต์
    265
    Thanks
    261
    Thanked 0 Times in 0 Posts
    ขอบคุณครับ

  4. #3
    Senior Member
    สมัครเมื่อ
    Dec 2013
    โพสต์
    6,363
    Thanks
    8,345
    Thanked 0 Times in 0 Posts
    ขอบคุณครับ...

  5. #4
    Member
    สมัครเมื่อ
    Nov 2014
    โพสต์
    99
    Thanks
    8
    Thanked 0 Times in 0 Posts
    ขอตอน5ด้วยครับ

  6. #5
    Administrators รูปส่วนตัว Duckload.us
    สมัครเมื่อ
    Dec 2010
    โพสต์
    152,672
    Thanks
    7
    Thanked 159,865 Times in 69,929 Posts
    The Boys (2024) ก๊วนหนุ่มซ่าล่าซูเปอร์ฮีโร่ S04EP01-05

  7. #6
    Senior Member
    สมัครเมื่อ
    Dec 2013
    โพสต์
    1,091
    Thanks
    1,056
    Thanked 0 Times in 0 Posts
    ขอบคุณครับบ

  8. #7
    Administrators รูปส่วนตัว Duckload.us
    สมัครเมื่อ
    Dec 2010
    โพสต์
    152,672
    Thanks
    7
    Thanked 159,865 Times in 69,929 Posts
    s04ep01-08 end

  9. #8
    Senior Member
    สมัครเมื่อ
    Jul 2013
    โพสต์
    3,768
    Thanks
    0
    Thanked 0 Times in 0 Posts
    ขอบคุณครับ

+ ตอบกลับกระทู้

ข้อมูลกระทู้

Users Browsing this Thread

ในขณะนี้มี 2 ท่านดูกระทู้อยู่. (1 สมาชิกและ 1 ผู้เยี่ยมชม)

  1. thiewtat

กฎการโพสต์ข้อความ

  • ท่าน ไม่สามารถ ตั้งกระทู้ใหม่ได้
  • ท่าน ไม่สามารถ ตอบกระทู้ได้
  • ท่าน ไม่สามารถ แนบไฟล์ได้
  • ท่าน ไม่สามารถ แก้ไขข้อความโพสต์ได้
  • BB code สถานะ เปิด
  • Smilies สถานะ เปิด
  • [IMG] สถานะ เปิด
  • HTML สถานะ ปิด