+ ตอบกลับกระทู้
สรุปผลการค้นหา 1 ถึง 5 จากทั้งหมด 5
  1. #1
    Administrators รูปส่วนตัว Duckload.us
    สมัครเมื่อ
    Dec 2010
    โพสต์
    152,672
    Thanks
    7
    Thanked 159,864 Times in 69,928 Posts

    Lightbulb [AMZN] The Beekeeper (2024) นรกเรียกพ่อ ไทยมาสเตอร์ ของแท้ [พากย์:ไทย 5.1+อังกฤษ5.1][SUB:ไทย/อังกฤษ][1080i/p] [EAC-3][h264][ซับไทย AMZN PGS+Vobsub+SRT]



    ในภาพยนตร์แอ็คชั่นสุดระทึกขวัญนี้ อดีตเจ้าหน้าที่ปฏิบัติการลับในองค์กรทรงอำนาจที่รู้ จักกันในชื่อ "บีคีปเปอร์" ต้องละทิ้งชีวิตสงบเรียบง่ายและออกไล่ล่าล้างแค้นแบบ ที่นรกยังเรียกพ่อเพื่อล้างบางการทุจริตในระดับสูงสุ ดของสังคมเรา

    ผู้กำกับ
    เดวิด ไอเยอร์
    ผู้อำนวยการสร้าง
    แอนดรูว์ โกโลฟ, ธอม ซาดรา, มาร์ค เบอร์มิงแฮม, บิล บล็อก, เจสัน สเตแธม, เดวิด ไอเยอร์, คริส ลอง, เคิร์ท วิมเมอร์
    แสดงโดย
    เจสัน สเตแธม, เอ็มมี่ เรเวอร์-แลมป์แมน, จอช ฮัดเชอร์สัน





    Format : Matroska
    Format version : Version 4
    File size : 4.28 GiB
    Duration : 1 h 45 min
    Overall bit rate : 5 805 kb/s
    Frame rate : 23.976 FPS
    Movie name : The.Beekeeper.2024.1080p.AMZN.APP-DL.DDP5.1.H264@Argon
    Encoded date : 2024-06-20 08:02:15 UTC
    Writing application : mkvmerge v74.0.0 ('You Oughta Know') 64-bit
    Writing library : libebml v1.4.4 + libmatroska v1.7.1
    Cover : Yes
    Attachments : cover.png

    Video
    ID : 1
    Format : AVC
    Format/Info : Advanced Video Codec
    Format profile : High@L4
    Format settings : CABAC / 4 Ref Frames
    Format settings, CABAC : Yes
    Format settings, Reference fra : 4 frames
    Codec ID : V_MPEG4/ISO/AVC
    Duration : 1 h 45 min
    Bit rate : 4 499 kb/s
    Width : 1 920 pixels
    Height : 800 pixels
    Display aspect ratio : 2.40:1
    Frame rate mode : Constant
    Frame rate : 23.976 (24000/1001) FPS
    Color space : YUV
    Chroma subsampling : 4:2:0
    Bit depth : 8 bits
    Scan type : Progressive
    Bits/(Pixel*Frame) : 0.122
    Stream size : 3.32 GiB (78%)
    Default : Yes
    Forced : No
    Color range : Limited
    Color primaries : BT.709
    Transfer characteristics : BT.709
    Matrix coefficients : BT.709

    Audio #1
    ID : 2
    Format : E-AC-3
    Format/Info : Enhanced AC-3
    Commercial name : Dolby Digital Plus
    Codec ID : A_EAC3
    Duration : 1 h 45 min
    Bit rate mode : Constant
    Bit rate : 640 kb/s
    Channel(s) : 6 channels
    Channel layout : L R C LFE Ls Rs
    Sampling rate : 48.0 kHz
    Frame rate : 31.250 FPS (1536 SPF)
    Compression mode : Lossy
    Stream size : 483 MiB (11%)
    Title : Thai-DDP 5.1
    Language : Thai
    Service kind : Complete Main
    Default : Yes
    Forced : Yes

    Audio #2
    ID : 3
    Format : E-AC-3
    Format/Info : Enhanced AC-3
    Commercial name : Dolby Digital Plus
    Codec ID : A_EAC3
    Duration : 1 h 45 min
    Bit rate mode : Constant
    Bit rate : 640 kb/s
    Channel(s) : 6 channels
    Channel layout : L R C LFE Ls Rs
    Sampling rate : 48.0 kHz
    Frame rate : 31.250 FPS (1536 SPF)
    Compression mode : Lossy
    Stream size : 483 MiB (11%)
    Title : English-DDP 5.1
    Language : English
    Service kind : Complete Main
    Default : Yes
    Forced : No

    Text #1
    ID : 4
    Format : PGS
    Muxing mode : zlib
    Codec ID : S_HDMV/PGS
    Codec ID/Info : Picture based subtitle format used on BDs/HD-DVDs
    Duration : 9 min 24 s
    Bit rate : 1 012 b/s
    Frame rate : 0.011 FPS
    Count of elements : 6
    Stream size : 69.8 KiB (0%)
    Title : Thai-PGS (FORCED)
    Language : Thai
    Default : Yes
    Forced : Yes

    Text #2
    ID : 5
    Format : VobSub
    Muxing mode : zlib
    Codec ID : S_VOBSUB
    Codec ID/Info : Picture based subtitle format used on DVDs
    Duration : 9 min 24 s
    Bit rate : 231 b/s
    Frame rate : 0.005 FPS
    Count of elements : 3
    Stream size : 16.0 KiB (0%)
    Title : Thai-VOBSUB (FORCED)
    Language : Thai
    Default : Yes
    Forced : No

    Text #3
    ID : 6
    Format : PGS
    Muxing mode : zlib
    Codec ID : S_HDMV/PGS
    Codec ID/Info : Picture based subtitle format used on BDs/HD-DVDs
    Duration : 1 h 38 min
    Bit rate : 39.0 kb/s
    Frame rate : 0.440 FPS
    Count of elements : 2598
    Stream size : 27.4 MiB (1%)
    Title : Thai-PGS
    Language : Thai
    Default : Yes
    Forced : No

    Text #4
    ID : 7
    Format : VobSub
    Muxing mode : zlib
    Codec ID : S_VOBSUB
    Codec ID/Info : Picture based subtitle format used on DVDs
    Duration : 1 h 38 min
    Bit rate : 8 729 b/s
    Frame rate : 0.220 FPS
    Count of elements : 1298
    Stream size : 6.14 MiB (0%)
    Title : Thai-VOBSUB
    Language : Thai
    Default : Yes
    Forced : No

    Text #5
    ID : 8
    Format : UTF-8
    Codec ID : S_TEXT/UTF8
    Codec ID/Info : UTF-8 Plain Text
    Duration : 9 min 24 s
    Bit rate : 2 b/s
    Frame rate : 0.005 FPS
    Count of elements : 3
    Stream size : 201 Bytes (0%)
    Title : Thai-SRT (Foced)
    Language : Thai
    Default : Yes
    Forced : No

    Text #6
    ID : 9
    Format : UTF-8
    Codec ID : S_TEXT/UTF8
    Codec ID/Info : UTF-8 Plain Text
    Duration : 1 h 38 min
    Bit rate : 117 b/s
    Frame rate : 0.220 FPS
    Count of elements : 1299
    Stream size : 84.6 KiB (0%)
    Title : Thai-SRT
    Language : Thai (TH)
    Default : Yes
    Forced : No

    Text #7
    ID : 10
    Format : UTF-8
    Codec ID : S_TEXT/UTF8
    Codec ID/Info : UTF-8 Plain Text
    Duration : 1 h 39 min
    Bit rate : 73 b/s
    Frame rate : 0.305 FPS
    Count of elements : 1823
    Stream size : 53.4 KiB (0%)
    Title : English-SRT (SDH)
    Language : English (US)
    Default : Yes
    Forced : No

    The.Beekeeper.2024.BRrip.HEVC_HDR_1080p_E-AC-3_TH_EN_5.1.mkv
    http://www.filecondo.com/dl.php?f=T1a5ef1SkwFv

    5.39 GB


    The.Beekeeper.2024.1080p.AMZN.APP-DL.DDP5.1.H264.mkv
    http://www.filecondo.com/dl.php?f=k9de8c1SkwCz

    4.6 GB

  2. The Following 6 Users Say Thank You to Duckload.us For This Useful Post:

    bigbang06 (06-23-2024), Nam1499 (06-23-2024), noi54 (06-22-2024), petpina2010 (06-24-2024), Tellmon (06-25-2024), Timarat (06-24-2024)

  3. #2
    Senior Member
    สมัครเมื่อ
    Feb 2024
    โพสต์
    453
    Thanks
    415
    Thanked 0 Times in 0 Posts
    ข อ บ คุ ณ ม า ก ค่ ะ

  4. #3
    Junior Member
    สมัครเมื่อ
    Jul 2021
    โพสต์
    2
    Thanks
    0
    Thanked 0 Times in 0 Posts
    กำลังรอเลย เรีื่องนี้

  5. #4
    Senior Member รูปส่วนตัว petpina2010
    สมัครเมื่อ
    Jun 2020
    โพสต์
    265
    Thanks
    261
    Thanked 0 Times in 0 Posts
    ขอบคุณครับ

  6. #5
    Junior Member
    สมัครเมื่อ
    Sep 2022
    โพสต์
    1
    Thanks
    0
    Thanked 0 Times in 0 Posts

    Superlative asual Dating - Legitimate Girls

    Experience carefree connections with the top-rated site for casual dating adventures.
    Verified Ladies
    Premier casual Dating

+ ตอบกลับกระทู้

ข้อมูลกระทู้

Users Browsing this Thread

ในขณะนี้มี 1 ท่านดูกระทู้อยู่. (0 สมาชิกและ 1 ผู้เยี่ยมชม)

     

กฎการโพสต์ข้อความ

  • ท่าน ไม่สามารถ ตั้งกระทู้ใหม่ได้
  • ท่าน ไม่สามารถ ตอบกระทู้ได้
  • ท่าน ไม่สามารถ แนบไฟล์ได้
  • ท่าน ไม่สามารถ แก้ไขข้อความโพสต์ได้
  • BB code สถานะ เปิด
  • Smilies สถานะ เปิด
  • [IMG] สถานะ เปิด
  • HTML สถานะ ปิด