+ ตอบกลับกระทู้
สรุปผลการค้นหา 1 ถึง 6 จากทั้งหมด 6
  1. #1
    Administrators รูปส่วนตัว Duckload.us
    สมัครเมื่อ
    Dec 2010
    โพสต์
    152,672
    Thanks
    7
    Thanked 159,864 Times in 69,928 Posts

    Lightbulb [ฝรั่ง]-[* หนังใหม่ *] Furiosa: A Mad Max Saga (2024) ฟูริโอซ่า: มหากาพย์ แมด แม็กซ์ [ 1080p.WEB-DL.H264 ]-[ Audio : TH 5.1 DDP - EN 5.1 DDP Atmos ]-[ Sub : TH - EN ]



    เรื่องย่อ : เมื่อโลกล่มสลาย สาวน้อย Furiosa ถูกแย่งชิงจาก Green Place of Many Mothers และตกไปอยู่ในมือของ Biker Horde ผู้ยิ่งใหญ่ ที่นำโดย Warlord Dementus พวกเขากวาดล้างดินแดนรกร้างและพบเข้ากับป้อมปราการซึ ่งมี The Immortan Joe เป็นประธาน ในขณะที่ Tyrant ทั้งสองทำสงครามเพื่อแย่งชิงอำนาจ Furiosa จะต้องเอาชีวิตรอดจากการทดลองมากมาย ในขณะเดียวกันเธอก็ต้องหาทางกลับบ้านให้ได้


    **Video
    ID : 1
    Format : AVC
    Format/Info : Advanced Video Codec
    Format profile : High@L4
    Format settings : CABAC / 4 Ref Frames
    Format settings, CABAC : Yes
    Format settings, Reference : 4 frames
    Codec ID : V_MPEG4/ISO/AVC
    Duration : 2 h 28 min
    Bit rate : 8 000 kb/s
    Width : 1 920 pixels
    Height : 1 080 pixels
    Display aspect ratio : 16:9
    Frame rate mode : Constant
    Frame rate : 23.976 (24000/1001) FPS
    Color space : YUV
    Chroma subsampling : 4:2:0
    Bit depth : 8 bits
    Scan type : Progressive
    Bits/(Pixel*Frame) : 0.161
    Stream size : 8.08 GiB (87%)
    Writing library : x264 core 164 r3094 bfc87b7
    Encoding settings : cabac=1 / ref=4 / deblock=1:-1:-1 / analyse=0x3:0x133 / me=umh / subme=9 / psy=1 / psy_rd=1.00:0.15 / mixed_ref=1 / me_range=16 / chroma_me=1 / trellis=2 / 8x8dct=1 / cqm=0 / deadzone=21,11 / fast_pskip=1 / chroma_qp_offset=-3 / threads=12 / lookahead_threads=1 / sliced_threads=0 / nr=0 / decimate=1 / interlaced=0 / bluray_compat=0 / stitchable=1 / constrained_intra=0 / bframes=3 / b_pyramid=2 / b_adapt=2 / b_bias=0 / direct=3 / weightb=1 / open_gop=0 / weightp=2 / keyint=48 / keyint_min=4 / scenecut=0 / intra_refresh=0 / rc_lookahead=48 / rc=abr / mbtree=1 / bitrate=8000 / ratetol=1.0 / qcomp=0.60 / qpmin=0 / qpmax=69 / qpstep=4 / vbv_maxrate=8800 / vbv_bufsize=16000 / nal_hrd=none / filler=0 / ip_ratio=1.40 / aq=1:1.00
    Language : English
    Default : Yes
    Forced : No
    Color range : Limited
    Color primaries : BT.709
    Transfer characteristics : BT.709
    Matrix coefficients : BT.709

    Audio #1
    ID : 2
    Format : E-AC-3
    Format/Info : Enhanced AC-3
    Commercial name : Dolby Digital Plus
    Codec ID : A_EAC3
    Duration : 2 h 28 min
    Bit rate mode : Constant
    Bit rate : 384 kb/s
    Channel(s) : 6 channels
    Channel layout : L R C LFE Ls Rs
    Sampling rate : 48.0 kHz
    Frame rate : 31.250 FPS (1536 SPF)
    Compression mode : Lossy
    Delay relative to video : 1 s 0 ms
    Stream size : 407 MiB (4%)
    Title : TH 5.1 DDP - FFA
    Language : Thai
    Service kind : Complete Main
    Default : Yes
    Forced : No

    Audio #2
    ID : 3
    Format : E-AC-3 JOC
    Format/Info : Enhanced AC-3 with Joint Object Coding
    Commercial name : Dolby Digital Plus with Dolby Atmos
    Codec ID : A_EAC3
    Duration : 2 h 28 min
    Bit rate mode : Constant
    Bit rate : 768 kb/s
    Channel(s) : 6 channels
    Channel layout : L R C LFE Ls Rs
    Sampling rate : 48.0 kHz
    Frame rate : 31.250 FPS (1536 SPF)
    Compression mode : Lossy
    Stream size : 814 MiB (9%)
    Title : EN 5.1 DDP Atmos
    Language : English
    Service kind : Complete Main
    Default : No
    Forced : No

    Text #1
    ID : 4
    Format : PGS
    Muxing mode : zlib
    Codec ID : S_HDMV/PGS
    Codec ID/Info : Picture based subtitle format used on BDs/HD-DVDs
    Duration : 2 h 17 min
    Bit rate : 17.3 kb/s
    Frame rate : 0.235 FPS
    Count of elements : 1940
    Stream size : 17.0 MiB (0%)
    Title : TH
    Language : Thai
    Default : Yes
    Forced : No

    Text #2
    ID : 5
    Format : UTF-8
    Codec ID : S_TEXT/UTF8
    Codec ID/Info : UTF-8 Plain Text
    Duration : 2 h 16 min
    Bit rate : 28 b/s
    Frame rate : 0.128 FPS
    Count of elements : 1050
    Stream size : 28.1 KiB (0%)
    Language : English
    Default : No
    Forced : No

    Text #3
    ID : 6
    Format : UTF-8
    Codec ID : S_TEXT/UTF8
    Codec ID/Info : UTF-8 Plain Text
    Duration : 2 h 17 min
    Bit rate : 36 b/s
    Frame rate : 0.170 FPS
    Count of elements : 1401
    Stream size : 36.7 KiB (0%)
    Title : SDH
    Language : English
    Default : No
    Forced : No**



    Furiosa.A.Mad.Max.Saga.2024.1080p.WEB-DL.DDP5.1.Atmos.H.264-FFA.mkv
    http://www.filecondo.com/dl.php?f=Ya94ff1SnSJh
    9.97 GB

    Furiosa.A.Mad.Max.Saga.2024.HEVC_HDR_1080p_E-AC-3_TH_EN_5.1.mkv
    http://www.filecondo.com/dl.php?f=W29ea31SohKY
    7.22 GB

    Furiosa.A.Mad.Max.Saga.2024.AV1_HDR_1080p_E-AC-3_TH_EN_5.1.mkv
    http://www.filecondo.com/dl.php?f=J51b931SohJP
    5.19 GB

  2. The Following 8 Users Say Thank You to Duckload.us For This Useful Post:

    bigbang06 (07-01-2024), Jodz14 (07-05-2024), lonin (06-30-2024), mta28 (07-02-2024), Nam1499 (07-01-2024), PUNKROCK (07-01-2024), sommitr (07-17-2024), Wesker_TOT (07-01-2024)

  3. #2
    Senior Member
    สมัครเมื่อ
    Dec 2013
    โพสต์
    6,362
    Thanks
    8,344
    Thanked 0 Times in 0 Posts
    ขอบคุณครับ...

  4. #3
    Senior Member
    สมัครเมื่อ
    Jul 2013
    โพสต์
    3,768
    Thanks
    0
    Thanked 0 Times in 0 Posts
    ขอบคุรครับ

  5. #4
    Senior Member
    สมัครเมื่อ
    Feb 2024
    โพสต์
    453
    Thanks
    415
    Thanked 0 Times in 0 Posts
    ข อ บ คุ ณ ม า ก ค่ ะ

  6. #5
    Senior Member รูปส่วนตัว petpina2010
    สมัครเมื่อ
    Jun 2020
    โพสต์
    265
    Thanks
    261
    Thanked 0 Times in 0 Posts
    ขอบคุณครับ

  7. #6
    Member
    สมัครเมื่อ
    May 2012
    ที่อยู่
    Thailand
    โพสต์
    81
    Thanks
    713
    Thanked 0 Times in 0 Posts
    Thank you so much.

+ ตอบกลับกระทู้

ข้อมูลกระทู้

Users Browsing this Thread

ในขณะนี้มี 1 ท่านดูกระทู้อยู่. (0 สมาชิกและ 1 ผู้เยี่ยมชม)

     

กฎการโพสต์ข้อความ

  • ท่าน ไม่สามารถ ตั้งกระทู้ใหม่ได้
  • ท่าน ไม่สามารถ ตอบกระทู้ได้
  • ท่าน ไม่สามารถ แนบไฟล์ได้
  • ท่าน ไม่สามารถ แก้ไขข้อความโพสต์ได้
  • BB code สถานะ เปิด
  • Smilies สถานะ เปิด
  • [IMG] สถานะ เปิด
  • HTML สถานะ ปิด