+ ตอบกลับกระทู้
สรุปผลการค้นหา 1 ถึง 5 จากทั้งหมด 5
  1. #1
    Administrators รูปส่วนตัว Duckload.us
    สมัครเมื่อ
    Dec 2010
    โพสต์
    152,672
    Thanks
    7
    Thanked 159,864 Times in 69,928 Posts

    Lightbulb [ฝรั่ง]-[* หนังใหม่ *] The Fall Guy (2024) สตันท์แมนคนจริง [ 1080p.WEB-DL.H264 ]-[ Audio : TH 5.1 DD - EN 5.1 DDP Atmos ]-[Sub : TH - EN ]




    เรื่องย่อ : โคลท์ (ไรอัน กอสลิง) เป็นสตันท์แมน และเขาก็เป็นเหมือนกับทุกคนในแวดวงสตันท์แมน ที่ถูกระเบิด ถูกยิง ถูกชน ถูกเหวี่ยงทะลุหน้าต่างและตกจากที่ที่สูงที่สุด เพื่อความเพลิดเพลินบันเทิงใจของพวกเรา และบัดนี้ หลังจากประสบอุบัติที่ทำให้เขาเกือบต้องปิดฉากชีวิตส ตันท์แมนของตัวเอง ฮีโรชนชั้นแรงงานผู้นี้ก็จะต้องตามหาตัวดาราดังที่หา ยตัวไป ไขคดีสมคบคิดและพยายามกอบกู้ความรักที่พังพินาศไปพร้ อม ๆ กับการทำงานประจำของเขา ยังมีอะไรที่จะไปถูกที่ถูกทางได้บ้างมั้ยนะ

    Video
    ID : 1
    Format : AVC
    Format/Info : Advanced Video Codec
    Format profile : High@L4
    Format settings : CABAC / 4 Ref Frames
    Format settings, CABAC : Yes
    Format settings, Reference fra : 4 frames
    Codec ID : V_MPEG4/ISO/AVC
    Duration : 2 h 7 min
    Bit rate mode : Constant
    Bit rate : 8 698 kb/s
    Nominal bit rate : 10 000 kb/s
    Width : 1 920 pixels
    Height : 800 pixels
    Display aspect ratio : 2.40:1
    Frame rate mode : Constant
    Frame rate : 23.976 (24000/1001) FPS
    Color space : YUV
    Chroma subsampling : 4:2:0
    Bit depth : 8 bits
    Scan type : Progressive
    Bits/(Pixel*Frame) : 0.236
    Stream size : 7.72 GiB (88%)
    Language : English (US)
    Default : Yes
    Forced : No
    Color range : Limited
    Color primaries : BT.709
    Transfer characteristics : BT.709
    Matrix coefficients : BT.709

    Audio #1
    ID : 2
    Format : AC-3
    Format/Info : Audio Coding 3
    Commercial name : Dolby Digital
    Codec ID : A_AC3
    Duration : 2 h 6 min
    Bit rate mode : Constant
    Bit rate : 384 kb/s
    Channel(s) : 6 channels
    Channel layout : L R C LFE Ls Rs
    Sampling rate : 48.0 kHz
    Frame rate : 31.250 FPS (1536 SPF)
    Compression mode : Lossy
    Delay relative to video : 11 ms
    Stream size : 347 MiB (4%)
    Title : TH 5.1 DD - FFA
    Language : Thai
    Service kind : Complete Main
    Default : Yes
    Forced : No

    Audio #2
    ID : 3
    Format : E-AC-3 JOC
    Format/Info : Enhanced AC-3 with Joint Object Coding
    Commercial name : Dolby Digital Plus with Dolby Atmos
    Codec ID : A_EAC3
    Duration : 2 h 6 min
    Bit rate mode : Constant
    Bit rate : 768 kb/s
    Channel(s) : 6 channels
    Channel layout : L R C LFE Ls Rs
    Sampling rate : 48.0 kHz
    Frame rate : 31.250 FPS (1536 SPF)
    Compression mode : Lossy
    Delay relative to video : 13 ms
    Stream size : 694 MiB (8%)
    Title : EN 5.1 DDP Atmos
    Language : English (US)
    Service kind : Complete Main
    Default : No
    Forced : No
    Complexity index : 16
    Number of dynamic objects : 15
    Bed channel count : 1 channel
    Bed channel configuration : LFE


    Text #1
    ID : 4
    Format : UTF-8
    Codec ID : S_TEXT/UTF8
    Codec ID/Info : UTF-8 Plain Text
    Duration : 1 h 30 min
    Bit rate : 4 b/s
    Frame rate : 0.009 FPS
    Count of elements : 48
    Stream size : 3.22 KiB (0%)
    Title : TH Forced
    Language : Thai
    Default : Yes
    Forced : Yes

    Text #2
    ID : 5
    Format : UTF-8
    Codec ID : S_TEXT/UTF8
    Codec ID/Info : UTF-8 Plain Text
    Duration : 2 h 6 min
    Bit rate : 155 b/s
    Frame rate : 0.275 FPS
    Count of elements : 2083
    Stream size : 144 KiB (0%)
    Language : Thai
    Default : No
    Forced : No

    Text #3
    ID : 6
    Format : UTF-8
    Codec ID : S_TEXT/UTF8
    Codec ID/Info : UTF-8 Plain Text
    Duration : 2 h 6 min
    Bit rate : 92 b/s
    Frame rate : 0.350 FPS
    Count of elements : 2648
    Stream size : 85.6 KiB (0%)
    Language : English (US)
    Default : No
    Forced : No

    Text #4
    ID : 7
    Format : UTF-8
    Codec ID : S_TEXT/UTF8
    Codec ID/Info : UTF-8 Plain Text
    Duration : 2 h 6 min
    Bit rate : 103 b/s
    Frame rate : 0.389 FPS
    Count of elements : 2948
    Stream size : 96.1 KiB (0%)
    Title : SDH
    Language : English (US)
    Default : No
    Forced : No



    The.Fall.Guy.2024.1080p.WEB-DL.DDP5.1.Atmos.H.264-FFA.mkv
    http://www.filecondo.com/dl.php?f=e55d4a1SnSLM

    9.38 GB

  2. The Following 7 Users Say Thank You to Duckload.us For This Useful Post:

    bigbang06 (07-01-2024), Jodz14 (07-05-2024), lonin (06-30-2024), mta28 (07-02-2024), Nam1499 (07-01-2024), Tellmon (07-16-2024), Wesker_TOT (07-01-2024)

  3. #2
    Senior Member
    สมัครเมื่อ
    Dec 2013
    โพสต์
    6,362
    Thanks
    8,344
    Thanked 0 Times in 0 Posts
    ขอบคุญครับ...

  4. #3
    Senior Member รูปส่วนตัว petpina2010
    สมัครเมื่อ
    Jun 2020
    โพสต์
    265
    Thanks
    261
    Thanked 0 Times in 0 Posts
    ขอบคุณครับ

  5. #4
    Senior Member
    สมัครเมื่อ
    Feb 2024
    โพสต์
    453
    Thanks
    415
    Thanked 0 Times in 0 Posts
    ข อ บ คุ ณ ม า ก ค่ ะ

  6. #5
    Senior Member
    สมัครเมื่อ
    Jul 2013
    โพสต์
    3,768
    Thanks
    0
    Thanked 0 Times in 0 Posts
    ขอบคุณครับผม

+ ตอบกลับกระทู้

ข้อมูลกระทู้

Users Browsing this Thread

ในขณะนี้มี 2 ท่านดูกระทู้อยู่. (1 สมาชิกและ 1 ผู้เยี่ยมชม)

  1. ๋JRC

กฎการโพสต์ข้อความ

  • ท่าน ไม่สามารถ ตั้งกระทู้ใหม่ได้
  • ท่าน ไม่สามารถ ตอบกระทู้ได้
  • ท่าน ไม่สามารถ แนบไฟล์ได้
  • ท่าน ไม่สามารถ แก้ไขข้อความโพสต์ได้
  • BB code สถานะ เปิด
  • Smilies สถานะ เปิด
  • [IMG] สถานะ เปิด
  • HTML สถานะ ปิด