+ ตอบกลับกระทู้
สรุปผลการค้นหา 1 ถึง 2 จากทั้งหมด 2
  1. #1
    Administrators รูปส่วนตัว Duckload.us
    สมัครเมื่อ
    Dec 2010
    โพสต์
    152,672
    Thanks
    7
    Thanked 159,865 Times in 69,929 Posts

    Lightbulb [ฝรั่ง]-[Clean Cam]A Quiet Place Day One ดินแดนไร้เสียง วันที่หนึ่ง [พากย์ไทยโรง-อังกฤษ][ไม่มีซับ]-WEB-DL.H.264.1080p. [หนังซูม]-[พากย์ไทยโรง]



    เรื่องย่อ
    ย้อนกลับไปสู่ปฐมบทของทุกสิ่งอย่าง เมื่อมหานครนิวยอร์กถูกรุนรานโดยสิ่งมีชีวิตจากต่างด าวที่ออกตามล่าด้วยเสียง หญิงสาวที่ชื่อว่า แซมมี่ ก็พยายามที่จะเอาชีวิตรอดจากมหันตภัยในครั้งนี้



    General
    Unique ID : 103891971490781956884868636265689724493 (0x4E28DDAACE7EB4F67A0DBFA53745364D)
    Complete name : D:โหลดบืทA.Quiet.Place.Day.One.2024.1080p.Clean.Ca m.Dual.Audio.X264.COLLECTiVEA.Quiet.Place.Day.One. 2024.1080p.Clean.Cam.X264.THR.rezero235789.mkv
    Format : Matroska
    Format version : Version 4
    File size : 3.68 GiB
    Duration : 1 h 28 min
    Overall bit rate mode : Variable
    Overall bit rate : 5 930 kb/s
    Frame rate : 23.976 FPS
    Movie name : A.Quiet.Place.Day.One.2024.1080p.Clean.Cam.X264.TH R.rezero235789
    Encoded date : 2024-07-03 14:38:38 UTC
    Writing application : mkvmerge v83.0 ('Circle Of Friends') 64-bit
    Writing library : libebml v1.4.5 + libmatroska v1.7.1 / GPAC-2.2-rev0-gab012bbfb-ab-suite

    Video
    ID : 1
    Format : AVC
    Format/Info : Advanced Video Codec
    Format profile : [email protected]
    Format settings : CABAC / 4 Ref Frames
    Format settings, CABAC : Yes
    Format settings, Reference fra : 4 frames
    Codec ID : V_MPEG4/ISO/AVC
    Duration : 1 h 28 min
    Bit rate : 5 447 kb/s
    Width : 1 920 pixels
    Height : 912 pixels
    Display aspect ratio : 2.105
    Frame rate mode : Constant
    Frame rate : 23.976 (23976/1000) FPS
    Original frame rate : 23.976 (24000/1001) FPS
    Color space : YUV
    Chroma subsampling : 4:2:0
    Bit depth : 8 bits
    Scan type : Progressive
    Bits/(Pixel*Frame) : 0.130
    Stream size : 3.38 GiB (92%)
    Writing library : x264 core 164 r3107 a8b68eb
    Encoding settings : cabac=1 / ref=2 / deblock=1:-1:-1 / analyse=0x3:0x133 / me=umh / subme=9 / psy=1 / psy_rd=1.00:0.15 / mixed_ref=1 / me_range=16 / chroma_me=1 / trellis=2 / 8x8dct=1 / cqm=0 / deadzone=21,11 / fast_pskip=1 / chroma_qp_offset=-3 / threads=24 / lookahead_threads=2 / sliced_threads=0 / nr=0 / decimate=1 / interlaced=0 / bluray_compat=0 / constrained_intra=0 / bframes=3 / b_pyramid=2 / b_adapt=2 / b_bias=0 / direct=3 / weightb=1 / open_gop=0 / weightp=2 / keyint=240 / keyint_min=23 / scenecut=40 / intra_refresh=0 / rc_lookahead=60 / rc=2pass / mbtree=1 / bitrate=5447 / ratetol=1.0 / qcomp=0.60 / qpmin=0 / qpmax=69 / qpstep=4 / cplxblur=20.0 / qblur=0.5 / vbv_maxrate=25000 / vbv_bufsize=25000 / nal_hrd=none / filler=0 / ip_ratio=1.40 / aq=1:1.00
    Default : Yes
    Forced : No

    Audio #1
    ID : 2
    Format : FLAC
    Format/Info : Free Lossless Audio Codec
    Codec ID : A_FLAC
    Duration : 1 h 28 min
    Bit rate mode : Variable
    Bit rate : 289 kb/s
    Channel(s) : 2 channels
    Channel layout : L R
    Sampling rate : 48.0 kHz
    Frame rate : 11.719 FPS (4096 SPF)
    Bit depth : 16 bits
    Compression mode : Lossless
    Stream size : 183 MiB (5%)
    Title : Thai(Rong)By.rezero235789
    Writing library : libFLAC 20080709 (2008-07-09)
    Language : Thai
    Default : Yes
    Forced : Yes
    MD5 of the unencoded content : 4486341F8C769A794EDC90A888BEC3C5

    Audio #2
    ID : 3
    Format : AC-3
    Format/Info : Audio Coding 3
    Commercial name : Dolby Digital
    Codec ID : A_AC3
    Duration : 1 h 28 min
    Bit rate mode : Constant
    Bit rate : 192 kb/s
    Channel(s) : 2 channels
    Channel layout : L R
    Sampling rate : 48.0 kHz
    Frame rate : 31.250 FPS (1536 SPF)
    Compression mode : Lossy
    Stream size : 122 MiB (3%)
    Title : English
    Language : English
    Service kind : Complete Main
    Default : No
    Forced : No

    A.Quiet.Place.Day.One.2024.1080p.Clean.Cam.X264.TH R.rezero235789.mkv
    http://www.filecondo.com/dl.php?f=Had0ad1Spfz7

    3.95 GB

  2. The Following 2 Users Say Thank You to Duckload.us For This Useful Post:

    lonin (07-07-2024), Wesker_TOT (07-09-2024)

  3. #2
    Senior Member
    สมัครเมื่อ
    Dec 2013
    โพสต์
    6,363
    Thanks
    8,345
    Thanked 0 Times in 0 Posts
    ขอบคุณครับ...

+ ตอบกลับกระทู้

ข้อมูลกระทู้

Users Browsing this Thread

ในขณะนี้มี 1 ท่านดูกระทู้อยู่. (0 สมาชิกและ 1 ผู้เยี่ยมชม)

     

กฎการโพสต์ข้อความ

  • ท่าน ไม่สามารถ ตั้งกระทู้ใหม่ได้
  • ท่าน ไม่สามารถ ตอบกระทู้ได้
  • ท่าน ไม่สามารถ แนบไฟล์ได้
  • ท่าน ไม่สามารถ แก้ไขข้อความโพสต์ได้
  • BB code สถานะ เปิด
  • Smilies สถานะ เปิด
  • [IMG] สถานะ เปิด
  • HTML สถานะ ปิด