+ ตอบกลับกระทู้
สรุปผลการค้นหา 1 ถึง 2 จากทั้งหมด 2
  1. #1
    Administrators รูปส่วนตัว Duckload.us
    สมัครเมื่อ
    Dec 2010
    โพสต์
    152,672
    Thanks
    7
    Thanked 159,864 Times in 69,928 Posts

    Lightbulb [ฝรั่ง]-[2024] The Watchers [เสียงอังกฤษ] • [บรรยาย: ไทย]-WEB-DL.MPEG-2.1080p. [Modified]-[Soundtrack บรรยายไทย (แปล)]



    General
    Unique ID : 291362791524682487916585322052848840731 (0xDB326EB784A2F5E9FA36E1654D71F01B)
    Complete name : E:MovieComplete[2024] The Watchers[2024] The Watchers.mkv
    Format : Matroska
    Format version : Version 4
    File size : 5.23 GiB
    Duration : 1 h 41 min
    Overall bit rate : 7 368 kb/s
    Movie name : The.Watchers.2024.1080p.WEB-DL.DDP5.1.H264@Argon ™
    Encoded date : UTC 2024-07-04 13:42:48
    Writing application : mkvmerge v74.0.0 ('You Oughta Know') 64-bit
    Writing library : libebml v1.4.4 + libmatroska v1.7.1

    Video
    ID : 1
    Format : AVC
    Format/Info : Advanced Video Codec
    Format profile : High@L4
    Format settings : CABAC / 4 Ref Frames
    Format settings, CABAC : Yes
    Format settings, Reference fra : 4 frames
    Codec ID : V_MPEG4/ISO/AVC
    Duration : 1 h 41 min
    Bit rate : 6 580 kb/s
    Width : 1 918 pixels
    Height : 1 036 pixels
    Display aspect ratio : 1.85:1
    Frame rate mode : Constant
    Frame rate : 23.976 (24000/1001) FPS
    Original frame rate : 47.952 (48000/1001) FPS
    Color space : YUV
    Chroma subsampling : 4:2:0
    Bit depth : 8 bits
    Scan type : Progressive
    Bits/(Pixel*Frame) : 0.138
    Stream size : 4.67 GiB (89%)
    Title : The.Watchers.2024.1080p.WEB-DL.DDP5.1.H264@Argon ™
    Language : English
    Default : Yes
    Forced : No
    Color range : Limited
    Color primaries : BT.709
    Transfer characteristics : BT.709
    Matrix coefficients : BT.709

    Audio
    ID : 2
    Format : E-AC-3 JOC
    Format/Info : Enhanced AC-3 with Joint Object Coding
    Commercial name : Dolby Digital Plus with Dolby Atmos
    Codec ID : A_EAC3
    Duration : 1 h 41 min
    Bit rate mode : Constant
    Bit rate : 768 kb/s
    Channel(s) : 6 channels
    Channel layout : L R C LFE Ls Rs
    Sampling rate : 48.0 kHz
    Frame rate : 31.250 FPS (1536 SPF)
    Compression mode : Lossy
    Stream size : 559 MiB (10%)
    Title : English-DDP 5.1+Atmos
    Language : English
    Service kind : Complete Main
    Default : Yes
    Forced : No
    Complexity index : 16
    Number of dynamic objects : 15
    Bed channel count : 1 channel
    Bed channel configuration : LFE

    Text #1
    ID : 3
    Format : PGS
    Muxing mode : zlib
    Codec ID : S_HDMV/PGS
    Codec ID/Info : Picture based subtitle format used on BDs/HD-DVDs
    Duration : 1 h 34 min
    Bit rate : 32.8 kb/s
    Count of elements : 2032
    Stream size : 22.2 MiB (0%)
    Title : Thai-PGS
    Language : Thai
    Default : Yes
    Forced : Yes

    Text #2
    ID : 4
    Format : VobSub
    Muxing mode : zlib
    Codec ID : S_VOBSUB
    Codec ID/Info : Picture based subtitle format used on DVDs
    Duration : 1 h 34 min
    Bit rate : 7 157 b/s
    Count of elements : 1013
    Stream size : 4.85 MiB (0%)
    Title : Thai-VOBSUB
    Language : Thai
    Default : Yes
    Forced : No

    Text #3
    ID : 5
    Format : UTF-8
    Codec ID : S_TEXT/UTF8
    Codec ID/Info : UTF-8 Plain Text
    Duration : 1 h 34 min
    Bit rate : 95 b/s
    Count of elements : 1016
    Stream size : 66.4 KiB (0%)
    Title : Thai-SRT
    Language : Thai
    Default : Yes
    Forced : No

    Text #4
    ID : 6
    Format : UTF-8
    Codec ID : S_TEXT/UTF8
    Codec ID/Info : UTF-8 Plain Text
    Duration : 1 h 34 min
    Bit rate : 56 b/s
    Count of elements : 1392
    Stream size : 39.3 KiB (0%)
    Title : English-SRT
    Language : English
    Default : Yes
    Forced : No



    [2024]_The_Watchers.bearbit.mkv
    http://www.filecondo.com/dl.php?f=p35abb1Sqo3v

    5.62 GB

  2. #2
    Senior Member
    สมัครเมื่อ
    Jul 2013
    โพสต์
    3,768
    Thanks
    0
    Thanked 0 Times in 0 Posts
    ขอบคุณครับ

+ ตอบกลับกระทู้

ข้อมูลกระทู้

Users Browsing this Thread

ในขณะนี้มี 1 ท่านดูกระทู้อยู่. (0 สมาชิกและ 1 ผู้เยี่ยมชม)

     

กฎการโพสต์ข้อความ

  • ท่าน ไม่สามารถ ตั้งกระทู้ใหม่ได้
  • ท่าน ไม่สามารถ ตอบกระทู้ได้
  • ท่าน ไม่สามารถ แนบไฟล์ได้
  • ท่าน ไม่สามารถ แก้ไขข้อความโพสต์ได้
  • BB code สถานะ เปิด
  • Smilies สถานะ เปิด
  • [IMG] สถานะ เปิด
  • HTML สถานะ ปิด