+ ตอบกลับกระทู้
หน้า 1 จากทั้งหมด 2 หน้า 1 2 หน้าสุดท้ายหน้าสุดท้าย
สรุปผลการค้นหา 1 ถึง 10 จากทั้งหมด 11
  1. #1
    Administrators รูปส่วนตัว Duckload.us
    สมัครเมื่อ
    Dec 2010
    โพสต์
    114,242
    Thanks
    7
    Thanked 120,505 Times in 54,233 Posts

    Lightbulb [ฝรั่ง]- Hellboy Duology (2004-2008) - CtHts : ฮีโร่พันธุ์นรก 1-2 [Encode.MKV.1080p.ENG.DTSHD-MA.7.1.THAI-DTS]-[เสียง:ไทย/อังกฤษ][บรรยาย:ไทย/อังกฤษ]



    ================================================== ================================================
    ================================================== ================================================



    Action|Adventure|Fantasy - 2 April 2004 (USA)

    Director:
    Guillermo del Toro

    Writers:
    Guillermo del Toro (screenplay), Guillermo del Toro (screen story)

    Stars:
    Ron Perlman, Doug Jones, Selma Blair

    A demon, raised from infancy after being conjured by and rescued from the Nazis, grows up to become a defender against the forces of darkness.

    เฮลล์บอย (รอน เพิร์ลแมน) ซึ่งถือกำเนิดในเปลวเพลิงจากนรกเมื่อ 60 ปีก่อน ในช่วงสงครามโลกครั้งที่ 2 ได้ถูกนำตัวมายังโลกโดยฝีมือของ กริกอรี่ ราสปูติน ชายที่ชั่วร้าย (คาเรล โรเด้น) เพื่อให้เขากระทำเรื่องชั่วร้ายเฮลล์บอยที่ถูกชะตากำ หนดให้เป็นผู้นำมาซึ่ง หายนะล้างโลก ได้รับการช่วยเหลือจากกองทัพพันธมิตรที่นำทีมโดยศาสต ราจารย์บรูม (จอห์น เฮิร์ต) ผู้ก่อตั้งศูนย์บัญชาการลับบีพีอาร์ดี ศูนย์กลางเพื่อการค้นคว้าและป้องกันเหตุเหนือธรรมชาต ิ ผู้เลี้ยงดูเฮลล์บอยมาเสมือนลูกในไส้ และได้พัฒนาความสามารถเหนือธรรมชาติของเขาถึงแม้จะมี ชาติกำเนิดที่ชั่วร้าย แต่เฮลล์บอยได้กลายเป็นผู้ชนะแห่งความดีในแบบที่ไม่น ่าเป็นไปได้ เขาต่อสู้กับพลังชั่วร้ายที่คุกคามโลกของเรา และที่บีพีอาร์ดี เฮลล์บอยได้กลายเป็นส่วนหนึ่งของครอบครัวที่ไม่เหมือ นใคร ซึ่งรวมถึงสมาชิกอย่าง เมอร์-แมน เอบี้ เซเปียน (ดั๊ก โจนส์) ผู้มีพลังโทรจิต และ ลิซ เชอร์แมน (เซลม่า แบลร์) ผู้สามารถควบคุมความร้อนพวกเขาเหล่านี้ต้องหลบซ่อนตั วจากสังคมที่พวกเขาได้ รับมอบหมายให้ทำหน้าที่ปกป้อง พวกเขากลายเป็นแนวป้องกันเพื่อรับมือกับราสปูติน ผู้ตามค้นหาเพื่อดึงเฮลล์บอยให้กลับคืนสู่ด้านมืด และใช้พลังของเขาเพื่อการต่อสู้ระหว่างธรรมะและอธรรม ก็อย่างที่บรูมได้กล่าวถึงบีพีอาร์ดีเอาไว้ว่า “ อย่าได้ทำผิดพลาด มีหลายสิ่งหลายอย่างที่อยู่ข้างนอกที่บุกเข้าจู่โจมใ นยามค่ำคืน เราคือคนที่จะต้องตอบโต้กลับ” เรฟโวลูชั่น สตูดิโอภูมิใจเสนอผลงานการสร้างของลอว์เรนซ์ กอร์ดอน/ ลอยด์ เลวิน โดยความร่วมมือกับดาร์กฮอร์ส เอนเตอร์เทนเม้นต์ เรื่อง Hellboy โดยโคลัมเบีย พิคเจอร์สทำหน้าที่จัดจำหน่าย ภาพยนตร์เรื่องนี้กำกับโดย กิลเลอร์โม่ เดอ โทโร่ บทภาพยนตร์เป็นฝีมือของ กิลเลอร์โม่ เดล โทโร่ จากเรื่องโดย กิลเลอร์โม่ เดอ โทโร่ และ ปีเตอร์ บริกก์ส โดยอิงจากหนังสือการ์ตูน ดาร์กฮอร์ส คอมิค ที่สรรค์สร้างโดย ไมก์ มิกโนล่า ทีมผู้อำนวยการสร้างได้แก่ ลอว์เรนซ์ กอร์ดอน, ไมก์ ริชาร์ดสัน และ ลอยด์ เลวินผู้อำนวยการสร้างบริหารได้แก่ แพทริก พัลเมอร์ ผู้กำกับภาพ ได้แก่ กิลเลอร์โม่ นาวาร์โร่, เอเอสซี ภาพยนตร์เรื่องนี้ตัดต่อโดย ปีเตอร์ อมันด์สัน โปรดักชั่นดีไซเนอร์ ได้แก่ สตีเฟ่น สก๊อตต์ ผู้ออกแบบเครื่องแต่งกาย ได้แก่ เวนดี้ พาร์ทริดจ์ ดนตรีประกอบเป็นฝีมือของ มาร์โก้ เบลทรามิ มิวสิกซูเปอร์ไวเซอร์ ได้แก่ ปีเตอร์ อัฟเตอร์แมน และ มาร์กาเร็ต เยน Hellboy ได้รับการจัดเรตโดยสมาพันธ์สมาคมภาพยนตร์แห่งสหรัฐอเ มริกาให้เป็นภาพยนตร์ เรต PG-13 อันเนื่องมาจากฉากแอ๊กชั่นแนวไซไฟที่มีความรุนแรงและ ภาพอันน่าหวาดกลัว

    General
    Unique ID : 213926591386465172885281863267663035501 (0xA0F0C34882F58401BD893AE6497D3C6D)
    Complete name : L:Torrent SeedingHellboy Duology (2004-2008) - CtHtsHellboy.Director s.Cut.2004.Encode.MKV.1080p.ENG-DTSHD-MA.THAI-AC3.CtHtsHellboy.Director s.Cut.2004.Encode.MKV.1080p.ENG-DTSHD-MA.THAI-AC3.CtHts.mkv
    Format : Matroska
    Format version : Version 4 / Version 2
    File size : 14.6 GiB
    Duration : 2h 12mn
    Overall bit rate mode : Variable
    Overall bit rate : 15.7 Mbps
    Movie name : Hellboy.Director s.Cut.2004.Encode.MKV.1080p.ENG-DTSHD-MA.THAI-AC3.CtHts [ Remux by United ]
    Encoded date : UTC 2010-02-22 21:41:31
    Writing application : mkvmerge v5.9.0 ( On The Loose ) built on Dec 9 2012 15:37:01
    Writing library : libebml v1.3.0 + libmatroska v1.4.0

    Video
    ID : 1
    Format : AVC
    Format/Info : Advanced Video Codec
    Format profile : [email protected]
    Format settings, CABAC : Yes
    Format settings, ReFrames : 6 frames
    Codec ID : V_MPEG4/ISO/AVC
    Duration : 2h 12mn
    Bit rate mode : Variable
    Bit rate : 11.1 Mbps
    Nominal bit rate : 10.5 Mbps
    Maximum bit rate : 40.0 Mbps
    Width : 1 920 pixels
    Height : 1 040 pixels
    Display aspect ratio : 1.85:1
    Frame rate mode : Constant
    Frame rate : 23.976 fps
    Color space : YUV
    Chroma subsampling : 4:2:0
    Bit depth : 8 bits
    Scan type : Progressive
    Bits/(Pixel*Frame) : 0.231
    Stream size : 10.2 GiB (70%)
    Title : Hellboy.Director s.Cut.2004.Encode.MKV.1080p.ENG-DTSHD-MA.THAI-AC3.CtHts [ Remux by United ]
    Writing library : x264 core 54 svn-635M
    Encoding settings : cabac=1 / ref=3 / deblock=1:-2:-1 / analyse=0x3:0x133 / me=umh / subme=6 / brdo=0 / mixed_ref=0 / me_range=12 / chroma_me=1 / trellis=1 / 8x8dct=1 / cqm=2 / deadzone=21,11 / chroma_qp_offset=0 / threads=2 / nr=0 / decimate=1 / mbaff=0 / bframes=3 / b_pyramid=1 / b_adapt=1 / b_bias=0 / direct=3 / wpredb=1 / bime=0 / keyint=250 / keyint_min=25 / scenecut=40(pre) / rc=2pass / bitrate=10500 / ratetol=1.0 / rceq= blurCplx^(1-qComp) / qcomp=0.60 / qpmin=10 / qpmax=51 / qpstep=4 / cplxblur=20.0 / qblur=0.5 / ip_ratio=1.40 / pb_ratio=1.3
    Language : English
    Default : Yes
    Forced : Yes

    Audio #1
    ID : 2
    Format : DTS
    Format/Info : Digital Theater Systems
    Format profile : MA / Core
    Codec ID : A_DTS
    Duration : 2h 12mn
    Bit rate mode : Variable
    Bit rate : 1 561 Kbps / 1 510 Kbps
    Channel(s) : 6 channels
    Channel positions : Front: L C R, Side: L R, LFE
    Sampling rate : 48.0 KHz
    Bit depth : 16 bits
    Compression mode : Lossless / Lossy
    Title : Eng DTSHD-MA 5.1
    Language : English
    Default : No
    Forced : No

    Audio #2
    ID : 3
    Format : DTS
    Format/Info : Digital Theater Systems
    Codec ID : A_DTS
    Duration : 2h 12mn
    Bit rate mode : Constant
    Bit rate : 1 510 Kbps
    Channel(s) : 6 channels
    Channel positions : Front: L C R, Side: L R, LFE
    Sampling rate : 48.0 KHz
    Bit depth : 16 bits
    Compression mode : Lossy
    Stream size : 1.40 GiB (10%)
    Title : Eng DTS
    Language : English
    Default : No
    Forced : No

    Audio #3
    ID : 4
    Format : AC-3
    Format/Info : Audio Coding 3
    Mode extension : CM (complete main)
    Format settings, Endianness : Big
    Codec ID : A_AC3
    Duration : 2h 12mn
    Bit rate mode : Constant
    Bit rate : 640 Kbps
    Channel(s) : 6 channels
    Channel positions : Front: L C R, Side: L R, LFE
    Sampling rate : 48.0 KHz
    Bit depth : 16 bits
    Compression mode : Lossy
    Stream size : 606 MiB (4%)
    Title : Eng AC3
    Language : English
    Default : No
    Forced : No

    Audio #4
    ID : 5
    Format : AC-3
    Format/Info : Audio Coding 3
    Mode extension : CM (complete main)
    Format settings, Endianness : Big
    Codec ID : A_AC3
    Duration : 2h 12mn
    Bit rate mode : Constant
    Bit rate : 640 Kbps
    Channel(s) : 6 channels
    Channel positions : Front: L C R, Side: L R, LFE
    Sampling rate : 48.0 KHz
    Bit depth : 16 bits
    Compression mode : Lossy
    Stream size : 606 MiB (4%)
    Title : Thai AC3 from Bluray Master
    Language : Thai
    Default : Yes
    Forced : Yes

    Text #1
    ID : 6
    Format : VobSub
    Codec ID : S_VOBSUB
    Codec ID/Info : The same subtitle format used on DVDs
    Title : Thai 1080p
    Language : Thai
    Default : No
    Forced : No

    Text #2
    ID : 7
    Format : PGS
    Codec ID : S_HDMV/PGS
    Codec ID/Info : The same subtitle format used on BDs/HD-DVDs
    Title : Thai PGS from Bluray Master
    Language : Thai
    Default : No
    Forced : No

    Text #3
    ID : 8
    Format : VobSub
    Codec ID : S_VOBSUB
    Codec ID/Info : The same subtitle format used on DVDs
    Title : Eng 1080p
    Language : English
    Default : No
    Forced : No

    Text #4
    ID : 9
    Format : PGS
    Codec ID : S_HDMV/PGS
    Codec ID/Info : The same subtitle format used on BDs/HD-DVDs
    Title : Eng PGS from Bluray Master
    Language : English
    Default : No
    Forced : No



    ================================================== ================================================
    ================================================== ================================================



    120 min - Action|Adventure|Fantasy - 11 July 2008 (USA)

    Director:
    Guillermo del Toro

    Writers:
    Guillermo del Toro (screenplay), Guillermo del Toro (story)

    Stars:
    Ron Perlman, Selma Blair, Doug Jones

    The mythical world starts a rebellion against humanity in order to rule the Earth, so Hellboy and his team must save the world from the rebellious creatures.

    ในปี 2004 มือเขียนบทและผู้กำกับที่เปี่ยมไปด้วยจินตนาการ กีลเลอร์โม่ เดล โทโร่ ได้นำฮีโร่จากหนังสือการ์ตูนของไมก์ มิกโนล่าอย่างเฮลล์บอย (รอน เพิร์ลแมน จาก Blade II, Alien: Resurrection) มาขึ้นจอ เฮลล์บอยที่เป็นนักสืบเหตุเหนือธรรมชาติกล้ามโต ที่มาพร้อมกับเขา หาง และอารมณ์ร้อนถึงจุดเดือด ก็คือผู้ชายธรรมดาที่กลายมาเป็นตัวละครสุดโปรดของเด็ กชายทั่วโลก ซึ่งรวมถึงเดล โทโร่ด้วย เดล โทโร่ได้แนะนำให้คนดูทั่วโลกได้รู้จักกับนักต่อสู้อา ชญากรรมอย่างไม่เต็มใจ ในภาพยนตร์เรื่อง Hellboy ด้วยความชาญฉลาด ฉากแอ็คชั่น และงานเอฟเฟ็กต์สุดเฉียบ ได้กลายมาเป็นภาพยนตร์สุดฮิตโกยรายได้และได้รับเสียง วิจารณ์ชื่นชมที่เขา ตั้งใจสร้างให้กับคนรักหนังสือการ์ตูนและคนดูทั่วไป

    การผจญภัยสุดยิ่งใหญ่ของเดล โทโร่ยังคงได้รับการสานต่อมาด้วยภาพยนตร์แอ็คชั่นทริ ลเลอร์ เรื่อง Hellboy II: The Golden Army ซึ่งถือเป็นผลงานใหม่ของเดล โทโร่ ต่อจากภาพยนตร์สามรางวัลออสการ์ของเขาในปี 2006 เรื่อง Pan s Labyrinth โดยเป็นการนำฮีโร่ตัวแดงกล้ามโตผู้รักแมวเหมียว ผู้มาพร้อมกับอาวุธร้ายกาจขึ้น กลับคืนสู่จอ พร้อมด้วยวายร้ายอสุรกาย และในครั้งนี้ เฮลล์บอยกลับมาไล่เตะปีศาจที่ชั่วร้ายมากขึ้น

    เฮลล์บอยพร้อมลุยเมื่อได้รับคำสั่งจากเจ้านายอย่างสำ นักงานค้นคว้าและ ป้องกันเหตุผิดธรรมชาติที่เป็นหน่วยงานลับสุดยอด (เป็นหน่วยงานลับที่ก่อตั้งขึ้นในปี 1943 โดยรูสเวลท์ พวกเขาใช้เทคโนโลยีลับ พลังลึกลับ และเครือข่ายของบุคคลที่มีพลังวิเศษเพื่อปกป้องโลกให ้พ้นจากเหตุเหนือ ธรรมชาติที่มีความรุนแรง หน่วยงานนี้มีชื่อเรียกสั้นๆ ว่า บีพีอาร์ดี) อย่างไรก็ดี เฮลล์บอยอยากจะกลับไปสูบซิการ์ บริหารหน้าท้อง และได้อยู่กับแฟนสาวพลังไฟของเขาที่ชื่อลิซ เชอร์แมน (เซลม่า แบลร์ จาก Legally Blonde, In Good Company) และแมวเหมียวของพวกเขามากกว่า แต่โชคชะตามีแผนการใหญ่กว่านั้นสำหรับพวกเขา

    หลังจากสัญญาณสงบศึกอันเก่าแก่ระหว่างมนุษยชาติกับเห ล่าลูกหลานของโลกถูก ทำลาย นรกแตกออกเจ้าชายนูอาดาแห่งยมโลก (ลุค กอสส์ จาก Blade II, Unearthed) รู้สึกเหนื่อยหน่ายที่ต้องยำเกรงต่อมนุษยชาติมานานหล ายศตวรรษ เขาจึงวางแผนการปลุกกองทัพนักฆ่าที่จะกลับมาทวงสิ่งท ี่เคยเป็นของประชากรของ เขา อสุรกายสุดมหัศจรรย์ทั้งหมดทั้งมวลได้รับการปลดปล่อย ให้ออกมาเดินท่องไปใน โลกอีกครั้ง บัดนี้ มีเพียงเฮลล์บอยเท่านั้นที่สามารถหยุดเจ้าชายแห่งยมโ ลก และช่วยโลกให้พ้นจากการโดนทำลายล้าง

    ที่ร่วมมือกับเฮลล์บอยและแฟนสาวของเขา ก็คือบรรดานักแสดงหลักของภาพยนตร์เรื่อง Hellboy อาทิเช่น อาบี เซเปียน ผู้หยั่งรู้ความรู้สึกของผู้อื่น (ดั๊ก โจนส์ จาก Pan s Labyrinth, Fantastic Four: Rise of the Silver Surfer) และทอม แมนนิ่ง เจ้าหน้าที่บีพีอาร์ดี (เจฟฟรีย์ แทมบอร์ จาก Superhero Movie, Arrested Development) นักแสดงชายรุ่นใหญ่มากฝีมืออย่างจอห์น เฮิร์ต (Indiana Jones and the Kingdom of the Crystal Skull, V for Vendetta) กลับมารับบทเป็นพ่อบุญธรรมของเฮลล์บอย ศาสตราจารย์เทรเวอร์ บรูม ส่วนหน้าใหม่ที่เข้ามาร่วมทีมนี้ก็คือโจแฮนน์ เคร้าสส์ บทที่ร่วมกันสร้างสรรค์โดยจอห์น อเล็กซานเดอร์ (Mighty Joe Young, Gorillas in the Mist: The Story of Dian Fossey) และหน้าใหม่อย่างเจมส์ ด็อดด์ เคร้าสส์ให้เสียงพากย์โดยเซ็ธ แม็คฟาร์เลน ผู้สร้างผลงานฮิตของฟ็อกซ์ เรื่อง Family Guy และเป็นชายที่อยู่เบื้องหลังเสียงพากย์ตัวละครดังๆ หลายตัวของซีรีส์เรื่องนี้

    แรงกระตุ้นที่โหดร้ายของนูอาดาที่ต้องการจะแก้แค้น มีพลังคัดค้านอยู่ อันได้แก่แรงกระตุ้นด้วยความเมตตาของคู่แฝดของเขาเจ้ าหญิงนูอาล่า ผู้เลอโฉม (แอนนา วอลตัน จาก The Mutant Chronicles, A Girl and a Gun) รอย โดไทรซ (Alien Hunter, Amadeus) รับบทเป็นคิงบาเลอร์ พระบิดาที่ทุกข์ทรมานของพวกเขา และไบรอัน สตีล (Hellboy) รับบทเป็นมิสเตอร์วิงก์ มือขวาของเจ้าชาย ร่วมด้วยตัวละครอีกมากมายหลายตัวที่ถูกเพิ่มเข้าไปใน โลกของเดล โทโร่ ศิลปินผู้เชี่ยวชาญด้านการเคลื่อนไหวร่างกายอย่าง โจนส์ได้ร่วมงานกับสตีลในการแสดงเป็นอสุรกายที่ต้องอ าศัยงานเอฟเฟ็กต์สร้าง ขึ้นมาหลายชนิดด้วยกัน อาทิเช่น แชมเปอร์เลน และสัตว์ประหลาดที่ดูน่าตื่นตาอย่างแองเจล ออฟ เด็ธ

    ในศึกครั้งนี้ บีดีอาร์ดีต้องเดินทางไปมาระหว่างโลกบนผิวโลกของมนุษ ย์ และโลกมหัศจรรย์ที่เคยถูกซ่อนไว้ ซึ่งเป็นดินแดนที่สิ่งมีชีวิตสุดมหัศจรรย์เหล่านี้อา ศัยอยู่ และเฮลล์บอย ซึ่งเป็นสิ่งมีชีวิตที่อาศัยอยู่ในทั้งสองโลกนี้ แต่กลับไม่เป็นที่ยอมรับในโลกไหนเลย ต้องเลือกระหว่างชีวิตที่เขารู้จัก กับชะตากรรมปริศนาที่มีเสน่ห์ล่อใจ

    ทีมงานหลังกล้องของ Hellboy II: The Golden Army ประกอบไปด้วยทีมศิลปินที่ประสบความสำเร็จ อาทิเช่น บรรดาผู้ที่เคยร่วมงานกับเดล โทโร่ มานานอย่าง ผู้กำกับภาพเจ้าของรางวัลออสการ์ กีลเลอโม่ นาวาร์โร่ (Pan’s Labyrinth, Night at the Museum), โปรดักชั่น ดีไซเนอร์ สตีเฟ่น สก็อตต์ (Hellboy, Doom), ผู้ลำดับภาพ เบอร์แน็ท วิลาพลานา (Pan s Labyrinth, La Monja) และหัวหน้าทีมสร้างสัตว์ประหลาดและเม้คอัพ เอฟเฟ็กต์ ไมก์ เอไลซัลดี้ (Hellboy, X-Men: The Last Stand) ทีมงานหลังกล้องที่เข้ามาเสริมทีมเพื่อสร้างสรรค์การ ผจญภัยบทใหม่ของ Hellboy ได้แก่ ผู้ออกแบบเครื่องแต่งกาย แซมมี่ เชลดอน (V for Vendetta, Black Hawk Down), วิชวลเอฟเฟ็กต์ ซูแปอร์ไวเซอร์ ไมเคิล เจ วอสเซล (Evan Almighty, 2 Fast 2 Furious) และผู้ประพันธ์ดนตรีประกอบที่ได้รับการเสนอชื่อเข้าช ิงรางวัลออสการ์มาแล้ว ถึง 3 ครั้ง แดนนี่ เอลฟ์แมน (Spider-Man 2, Wanted)

    เดล โทโร่ก็คือผู้เขียนบทภาพยนตร์เรื่อง Hellboy II: The Golden Army จากการคิดสร้างสรรค์เรื่องโดยเดล โทโร่และไมก์ มิกโนล่า โดยอิงจากหนังสือการ์ตูนของดาร์ก ฮอร์ส ที่สร้างสรรค์โดยผู้อำนวยการสร้างบริหารร่วม มิกโนล่า ที่กลับมาทำงานด้วยกันอีกครั้งก็คือ ทีมผู้อำนวยการสร้าง ลอว์เรนซ์ กอร์ดอน (Hellboy, Lara Croft: Tomb Raider, Die Hard), ลอยด์ เลวิน (Hellboy, United 93) และประธานและผู้ก่อตั้งบริษัทดาร์กฮอร์ส คอมิคส์ ไมก์ ริชาร์ดสัน (Hellboy, 30 Days of Night) โดยมีคริส ไซมส์ (Resident Evil, AVP: Alien vs. Predator) ทำหน้าที่ผู้อำนวยการสร้างบริหาร

    General
    Unique ID : 197193326972157921734657820245659410528 (0x945A0DA6B3671053AB57A7232FEEE060)
    Complete name : L:Torrent SeedingHellboy Duology (2004-2008) - CtHtsHellboy.II.The.Golden.Army.2008.Encode.MKV.10 80p.ENG-DTSHD-MA.THAI-DTS.CtHtsHellboy.II.The.Golden.Army.2008.Encode.MK V.1080p.ENG-DTSHD-MA.THAI-DTS.CtHts.mkv
    Format : Matroska
    Format version : Version 4 / Version 2
    File size : 16.7 GiB
    Duration : 1h 59mn
    Overall bit rate mode : Variable
    Overall bit rate : 19.9 Mbps
    Movie name : Hellboy.II.The.Golden.Army.2008.Encode.MKV.1080p.E NG-DTSHD-MA.THAI-DTS.CtHts [ Remux by United ]
    Encoded date : UTC 2010-02-22 21:41:31
    Writing application : mkvmerge v5.9.0 ( On The Loose ) built on Dec 9 2012 15:37:01
    Writing library : libebml v1.3.0 + libmatroska v1.4.0

    Video
    ID : 1
    Format : AVC
    Format/Info : Advanced Video Codec
    Format profile : [email protected]
    Format settings, CABAC : Yes
    Format settings, ReFrames : 4 frames
    Codec ID : V_MPEG4/ISO/AVC
    Duration : 1h 59mn
    Bit rate : 14.5 Mbps
    Nominal bit rate : 12.3 Mbps
    Width : 1 920 pixels
    Height : 1 040 pixels
    Display aspect ratio : 1.85:1
    Frame rate mode : Constant
    Frame rate : 23.976 fps
    Color space : YUV
    Chroma subsampling : 4:2:0
    Bit depth : 8 bits
    Scan type : Progressive
    Bits/(Pixel*Frame) : 0.303
    Stream size : 12.1 GiB (73%)
    Title : Hellboy.II.The.Golden.Army.2008.Encode.MKV.1080p.E NG-DTSHD-MA.THAI-DTS.CtHts [ Remux by United ]
    Writing library : x264 core 130 r2273 b3065e6
    Encoding settings : cabac=1 / ref=4 / deblock=1:-2:-2 / analyse=0x3:0x113 / me=umh / subme=11 / psy=1 / psy_rd=1.00:0.07 / mixed_ref=1 / me_range=56 / chroma_me=1 / trellis=2 / 8x8dct=1 / cqm=0 / deadzone=21,11 / fast_pskip=0 / chroma_qp_offset=-3 / threads=12 / lookahead_threads=2 / sliced_threads=0 / nr=0 / decimate=1 / interlaced=0 / bluray_compat=0 / constrained_intra=0 / bframes=7 / b_pyramid=2 / b_adapt=2 / b_bias=0 / direct=3 / weightb=1 / open_gop=0 / weightp=2 / keyint=240 / keyint_min=23 / scenecut=40 / intra_refresh=0 / rc_lookahead=240 / rc=2pass / mbtree=1 / bitrate=12288 / ratetol=1.0 / qcomp=0.60 / qpmin=0 / qpmax=69 / qpstep=4 / cplxblur=20.0 / qblur=0.5 / vbv_maxrate=50000 / vbv_bufsize=50000 / nal_hrd=none / ip_ratio=1.40 / aq=1:1.00
    Language : English
    Default : Yes
    Forced : Yes
    Color primaries : BT.709
    Transfer characteristics : BT.709
    Matrix coefficients : BT.709

    Audio #1
    ID : 2
    Format : DTS
    Format/Info : Digital Theater Systems
    Format profile : MA / Core
    Codec ID : A_DTS
    Duration : 1h 59mn
    Bit rate mode : Variable
    Bit rate : 2 761 Kbps / 1 510 Kbps
    Channel(s) : 8 channels / 6 channels
    Channel positions : Front: L C R, Side: L R, Wide: L R, LFE / Front: L C R, Side: L R, LFE
    Sampling rate : 48.0 KHz
    Bit depth : 24 bits
    Compression mode : Lossless / Lossy
    Title : Eng DTSHD-MA 7.1
    Language : English
    Default : No
    Forced : No

    Audio #2
    ID : 3
    Format : DTS
    Format/Info : Digital Theater Systems
    Codec ID : A_DTS
    Duration : 1h 59mn
    Bit rate mode : Constant
    Bit rate : 1 510 Kbps
    Channel(s) : 6 channels
    Channel positions : Front: L C R, Side: L R, LFE
    Sampling rate : 48.0 KHz
    Bit depth : 24 bits
    Compression mode : Lossy
    Stream size : 1.26 GiB (8%)
    Title : Eng DTS
    Language : English
    Default : No
    Forced : No

    Audio #3
    ID : 4
    Format : DTS
    Format/Info : Digital Theater Systems
    Codec ID : A_DTS
    Duration : 1h 59mn
    Bit rate mode : Constant
    Bit rate : 755 Kbps
    Channel(s) : 6 channels
    Channel positions : Front: L C R, Side: L R, LFE
    Sampling rate : 48.0 KHz
    Bit depth : 24 bits
    Compression mode : Lossy
    Stream size : 646 MiB (4%)
    Title : Thai DTS from Bluray Master
    Language : Thai
    Default : Yes
    Forced : Yes

    Text #1
    ID : 5
    Format : VobSub
    Codec ID : S_VOBSUB
    Codec ID/Info : The same subtitle format used on DVDs
    Title : Thai 1080p
    Language : Thai
    Default : No
    Forced : No

    Text #2
    ID : 6
    Format : PGS
    Codec ID : S_HDMV/PGS
    Codec ID/Info : The same subtitle format used on BDs/HD-DVDs
    Title : Thai PGS from Bluray Master
    Language : Thai
    Default : No
    Forced : No

    Text #3
    ID : 7
    Format : VobSub
    Codec ID : S_VOBSUB
    Codec ID/Info : The same subtitle format used on DVDs
    Title : Eng 1080p
    Language : English
    Default : No
    Forced : No

    Text #4
    ID : 8
    Format : PGS
    Codec ID : S_HDMV/PGS
    Codec ID/Info : The same subtitle format used on BDs/HD-DVDs
    Title : Eng PGS
    Language : English
    Default : No
    Forced : No



    สละเวลาอ่านก่อนโหลดสักนิดนะครับ

    ขอบคุณต้นฉบับไฟล์ Encode เมืองนอกจาก NongZEZA ขอบคุณมากๆครับ
    ขอบคุณใครสักคนในโลกของการแบ่งปันขอบคุณจริงๆครับ

    ปล. Hellboy.Director s.Cut.2004.Encode.MKV.1080p.ENG-DTSHD-MA.THAI-AC3.CtHts
    ภาคนี้เสียงอังกฤษเป็น DTSHD-MA 5.1 เสียงไทยเป็น AC3
    เสียงไทยบางช่วงจะเป็นเสียงอังกฤษนะครับเพราะตัวนี้เ ป็นตัว Director s Cut ซึ่งตัวหนังความยาวจะยาวกว่าเวอร์ชั่นปกตินะครับ
    ซึ่งเสียงไทยมาจาก Bluray Master นะครับ

    Hellboy.II.The.Golden.Army.2008.Encode.MKV.1080p.E NG-DTSHD-MA.THAI-DTS.CtHts
    ภาคนี้เสียงอังกฤษเป็น DTSHD-MA 7.1 เสียงไทยเป็น DTS จาก Bluray Master เลยนะครับ

    Modifield by United : CtHts Team
    (มาเถิดมากับพวกเรา พวกเราแค่มีความสุขที่ได้แบ่งปัน)

    เครดิตทีมงานสังคมแห่งการแบ่งปัน
    CtHts -> Coming together. Happy to share.





    1
    http://www.filecondo.com/dl.php?f=q8998f1ulLXl

    2
    http://www.filecondo.com/dl.php?f=xdcc3c1ulM04

  2. The Following 6 Users Say Thank You to Duckload.us For This Useful Post:

    agg001 (04-02-2013), anannitisat (09-09-2014), csoon (04-07-2013), oretro (04-21-2015), StepLoveDj Like (03-05-2015), สัญ (04-12-2013)

  3. #2
    Senior Member
    สมัครเมื่อ
    May 2012
    โพสต์
    100
    Thanks
    0
    Thanked 0 Times in 0 Posts
    ขอบคุณมากกๆๆ ครับ ที่แบ่งปัน ชอบมากครับเรื่องนี้

  4. #3
    Senior Member
    สมัครเมื่อ
    Mar 2013
    โพสต์
    1,328
    Thanks
    1,343
    Thanked 0 Times in 0 Posts
    ขอบคุณคร้าบ

  5. #4
    Senior Member
    สมัครเมื่อ
    Jan 2011
    โพสต์
    721
    Thanks
    968
    Thanked 0 Times in 0 Posts
    ขอบคุณครับ

  6. #5
    Junior Member
    สมัครเมื่อ
    Aug 2012
    โพสต์
    9
    Thanks
    0
    Thanked 0 Times in 0 Posts
    ขอบคุณมากครับ

  7. #6
    Senior Member
    สมัครเมื่อ
    Jun 2012
    โพสต์
    1,324
    Thanks
    0
    Thanked 1 Time in 1 Post
    ขอคุณมากๆครับ

  8. #7
    Senior Member
    สมัครเมื่อ
    Jul 2012
    โพสต์
    6,712
    Thanks
    0
    Thanked 0 Times in 0 Posts
    ขอบคุณมากจ้า

  9. #8
    Senior Member
    สมัครเมื่อ
    Apr 2013
    โพสต์
    617
    Thanks
    2
    Thanked 0 Times in 0 Posts
    ขอบคุณครับ

  10. #9
    Senior Member รูปส่วนตัว anannitisat
    สมัครเมื่อ
    Oct 2012
    ที่อยู่
    Thailand
    โพสต์
    2,348
    Thanks
    2,886
    Thanked 3 Times in 2 Posts
    ขอบคุณมากครับ





  11. #10
    Senior Member
    สมัครเมื่อ
    Jan 2014
    โพสต์
    785
    Thanks
    789
    Thanked 0 Times in 0 Posts
    ขอบคุณมากๆคับ

+ ตอบกลับกระทู้
หน้า 1 จากทั้งหมด 2 หน้า 1 2 หน้าสุดท้ายหน้าสุดท้าย

ข้อมูลกระทู้

Users Browsing this Thread

ในขณะนี้มี 1 ท่านดูกระทู้อยู่. (0 สมาชิกและ 1 ผู้เยี่ยมชม)

     

กฎการโพสต์ข้อความ

  • ท่าน ไม่สามารถ ตั้งกระทู้ใหม่ได้
  • ท่าน ไม่สามารถ ตอบกระทู้ได้
  • ท่าน ไม่สามารถ แนบไฟล์ได้
  • ท่าน ไม่สามารถ แก้ไขข้อความโพสต์ได้
  • BB code สถานะ เปิด
  • Smilies สถานะ เปิด
  • [IMG] สถานะ เปิด
  • HTML สถานะ ปิด