+ ตอบกลับกระทู้
สรุปผลการค้นหา 1 ถึง 3 จากทั้งหมด 3
  1. #1
    Administrators รูปส่วนตัว Duckload.us
    สมัครเมื่อ
    Dec 2010
    โพสต์
    150,748
    Thanks
    7
    Thanked 158,010 Times in 68,987 Posts

    Exclamation [ญี่ปุ่น]-Bayonetta: Bloody Fate บาโยเน็ตต้า บลัดดี้เฟท [1080p.BluRay.x264]-[พากย์ไทย 5.1 + อังกฤษ 5.1+ญี่ปุ่น 5.1]-[บรรยายไทย + อังกฤษ]-[ซับไทย PGS]-[เสียงไทยซับไทยดีวีดีมาสเตอร์]



    http://www.imdb.com/title/tt3306776/

    เรื่องย่อ

    ครั้งอดีตกาล… ในทวีปยุโรปสมัยยุคกลาง ณ สถานที่ๆ เรียกว่า วิกฤต (Vigrid) อันเป็นดินแดนแห่งสรวงสวรรค์ในตำนานปรำปรา มีเรื่องเล่าขานอันมิได้ถูกบันทึกลงในประวัติศาสตร์ เรื่องเล่าขานเล่าถึงสองเชื้อสายที่ค้ำยันสมดุลของโล กดั่งแสงและเงา หนึ่งคือ Umbra Witches ตัวแทนศาสตร์แห่งความมืดภายใต้สังกัดปีศาจ กับ Lumen Sages ตัวแทนศาสตร์แห่งแสงสว่างภายใต้สังกัดเทวา แม้ความมืดและแสงสว่างจะไม่สามารถเป็นหนึ่งเดียวกัน… แต่การมีตัวตนของเชื้อสายทั้งสองเป็นดั่งการปกปักรัก ษาและสร้างความสมดุลให้ โลกใบนี้

    ทว่า… ความสมดุลนั้นกลับต้องสิ้นสุดลง โดยจุดเริ่มนั้นเกิดขึ้นเมื่อผู้นำเชื้อสายแห่งแสงสว ่างและผู้นำเชื้อสาย แห่งความมืดได้ร่วมกันให้กำเนิดทายาท ซึ่งเป็นบุตรี ความหวังอันเป็น ดวงตาแห่งการสรรสร้าง ที่จะเนรมิตโลกใบใหม่ที่ไม่แบ่งแยกแสงสว่างและความมื ดออกจากกันเหมือนโลกยุค เก่าที่เป็นอยู่

    การรวมเป็นหนึ่งของสองสิ่งที่ไม่ควรประสานเป็นหนึ่ง เมื่อสรวงสวรรค์ได้ล่วงรู้จึงส่งเหล่าทูตเทวาลงมาปรา บเหล่าแม่มดข้าทาสแห่ง ปิศาจ… จนกลายเป็นสงครามใหญ่ล้างเผ่าพันธุ์ จุดสิ้นสุดคือ Umbra Witches สูญสิ้น คงเหลือแต่บุตรีทายาทคนสุดท้ายซึ่งได้ถูกจองจำไว้ใต้ ทะเลสาบเพื่อ ชั่วนิรันดร์…

    นี่คือเรื่องราวเมื่อห้าร้อยปีก่อน…

    General
    Format : Matroska
    Format version : Version 2
    File size : 3.70 GiB
    Duration : 1h 30mn
    Overall bit rate : 5 874 Kbps
    Movie name : Bayonetta.bloody.fate.2013.1080p.bluray.x264.Tommy pp

    Video
    ID : 1
    Format : AVC
    Format/Info : Advanced Video Codec
    Format profile : [email protected]
    Format settings, CABAC : Yes
    Format settings, ReFrames : 4 frames
    Muxing mode : Header stripping
    Codec ID : V_MPEG4/ISO/AVC
    Duration : 1h 30mn
    Bit rate : 4 477 Kbps
    Width : 1 920 pixels
    Height : 1 080 pixels
    Display aspect ratio : 16:9
    Frame rate mode : Constant
    Frame rate : 23.976 fps
    Color space : YUV
    Chroma subsampling : 4:2:0
    Bit depth : 8 bits
    Scan type : Progressive
    Bits/(Pixel*Frame) : 0.090
    Stream size : 2.82 GiB (76%)
    Title : Bayonetta.bloody.fate.2013.1080p.bluray.x264.Tommy pp
    Language : English
    Default : Yes
    Forced : No

    Audio #1
    ID : 2
    Format : AC-3
    Format/Info : Audio Coding 3
    Mode extension : CM (complete main)
    Format settings, Endianness : Big
    Muxing mode : Header stripping
    Codec ID : A_AC3
    Duration : 1h 30mn
    Bit rate mode : Constant
    Bit rate : 384 Kbps
    Channel(s) : 6 channels
    Channel positions : Front: L C R, Side: L R, LFE
    Sampling rate : 48.0 KHz
    Bit depth : 16 bits
    Compression mode : Lossy
    Delay relative to video : -34ms
    Stream size : 248 MiB (7%)
    Title : Surround 5.1 DVD Master
    Language : English
    Default : Yes
    Forced : No

    Audio #2
    ID : 3
    Format : AC-3
    Format/Info : Audio Coding 3
    Mode extension : CM (complete main)
    Format settings, Endianness : Big
    Muxing mode : Header stripping
    Codec ID : A_AC3
    Duration : 1h 30mn
    Bit rate mode : Constant
    Bit rate : 448 Kbps
    Channel(s) : 6 channels
    Channel positions : Front: L C R, Side: L R, LFE
    Sampling rate : 48.0 KHz
    Bit depth : 16 bits
    Compression mode : Lossy
    Delay relative to video : 44ms
    Stream size : 289 MiB (8%)
    Title : Surround 5.1
    Language : English
    Default : No
    Forced : No

    Audio #3
    ID : 4
    Format : AC-3
    Format/Info : Audio Coding 3
    Mode extension : CM (complete main)
    Format settings, Endianness : Big
    Muxing mode : Header stripping
    Codec ID : A_AC3
    Duration : 1h 30mn
    Bit rate mode : Constant
    Bit rate : 448 Kbps
    Channel(s) : 6 channels
    Channel positions : Front: L C R, Side: L R, LFE
    Sampling rate : 48.0 KHz
    Bit depth : 16 bits
    Compression mode : Lossy
    Delay relative to video : 44ms
    Stream size : 289 MiB (8%)
    Title : Surround 5.1
    Language : Japanese
    Default : No
    Forced : No

    Text #1
    ID : 5
    Format : VobSub
    Muxing mode : zlib
    Codec ID : S_VOBSUB
    Codec ID/Info : The same subtitle format used on DVDs
    Title : 480P DVD MASTER
    Language : Thai
    Default : No
    Forced : No

    Text #2
    ID : 6
    Format : VobSub
    Muxing mode : zlib
    Codec ID : S_VOBSUB
    Codec ID/Info : The same subtitle format used on DVDs
    Title : TSA 720P
    Language : Thai
    Default : No
    Forced : No

    Text #3
    ID : 7
    Format : VobSub
    Muxing mode : zlib
    Codec ID : S_VOBSUB
    Codec ID/Info : The same subtitle format used on DVDs
    Title : AS 1080P
    Language : Thai
    Default : No
    Forced : No

    Text #4
    ID : 8
    Format : VobSub
    Muxing mode : zlib
    Codec ID : S_VOBSUB
    Codec ID/Info : The same subtitle format used on DVDs
    Title : BWA 1080P
    Language : Thai
    Default : No
    Forced : No

    Text #5
    ID : 9
    Format : VobSub
    Muxing mode : zlib
    Codec ID : S_VOBSUB
    Codec ID/Info : The same subtitle format used on DVDs
    Title : TSA 1080P
    Language : Thai
    Default : No
    Forced : No

    Text #6
    ID : 10
    Format : PGS
    Muxing mode : zlib
    Codec ID : S_HDMV/PGS
    Codec ID/Info : The same subtitle format used on BDs/HD-DVDs
    Title : AS PGS
    Language : Thai
    Default : No
    Forced : No

    Text #7
    ID : 11
    Format : PGS
    Muxing mode : zlib
    Codec ID : S_HDMV/PGS
    Codec ID/Info : The same subtitle format used on BDs/HD-DVDs
    Title : BWA PGS
    Language : Thai
    Default : No
    Forced : No

    Text #8
    ID : 12
    Format : PGS
    Muxing mode : zlib
    Codec ID : S_HDMV/PGS
    Codec ID/Info : The same subtitle format used on BDs/HD-DVDs
    Title : TSA PGS
    Language : Thai
    Default : Yes
    Forced : No

    Text #9
    ID : 13
    Format : UTF-8
    Codec ID : S_TEXT/UTF8
    Codec ID/Info : UTF-8 Plain Text
    Title : SRT
    Language : English
    Default : No
    Forced : No









    http://www.filecondo.com/dl.php?f=Ga21fe1yt6vH

  2. The Following User Says Thank You to Duckload.us For This Useful Post:

    oretro (06-01-2015)

  3. #2
    Junior Member
    สมัครเมื่อ
    May 2022
    โพสต์
    6
    Thanks
    0
    Thanked 0 Times in 0 Posts
    กดเข้าลิ้งแล้วขึ้น wrong url ครับ

  4. #3
    Junior Member
    สมัครเมื่อ
    May 2022
    โพสต์
    6
    Thanks
    0
    Thanked 0 Times in 0 Posts
    ลิ้งเสียครับ แก้ให้หน่อย

+ ตอบกลับกระทู้

ข้อมูลกระทู้

Users Browsing this Thread

ในขณะนี้มี 1 ท่านดูกระทู้อยู่. (0 สมาชิกและ 1 ผู้เยี่ยมชม)

     

กฎการโพสต์ข้อความ

  • ท่าน ไม่สามารถ ตั้งกระทู้ใหม่ได้
  • ท่าน ไม่สามารถ ตอบกระทู้ได้
  • ท่าน ไม่สามารถ แนบไฟล์ได้
  • ท่าน ไม่สามารถ แก้ไขข้อความโพสต์ได้
  • BB code สถานะ เปิด
  • Smilies สถานะ เปิด
  • [IMG] สถานะ เปิด
  • HTML สถานะ ปิด