Spawn.Director's.Cut.1997.1080p.BluRay.DTS.BY.ENT-HD.mkv
Format : Matroska
Format version : Version 4 / Version 2
File size : 9.20 GiB
Duration : 1 h 38 min
Overall bit rate : 13.4 Mb/s
Movie name : Spawn.Director's.Cut.1997.1080p.BluRay.DTS.BY.ENT-HD
Encoded date : UTC 2017-01-01 06:35:48
Writing application : mkvmerge v9.5.0 ('Quiet Fire') 64bit
Writing library : libebml v1.3.4 + libmatroska v1.4.5
Attachments : Modified By (((ENT-HD))).txt / ENT-HD.png / Modified By (((ENT-HD))).txt / ENT-HD.png

Video
ID : 1
Format : AVC
Format/Info : Advanced Video Codec
Format profile : [email protected]
Format settings, CABAC : Yes
Format settings, ReFrames : 4 frames
Codec ID : V_MPEG4/ISO/AVC
Duration : 1 h 38 min
Bit rate : 11.4 Mb/s
Width : 1 920 pixels
Height : 1 080 pixels
Display aspect ratio : 16:9
Frame rate mode : Constant
Frame rate : 23.976 (24000/1001) FPS
Color space : YUV
Chroma subsampling : 4:2:0
Bit depth : 8 bits
Scan type : Progressive
Bits/(Pixel*Frame) : 0.229
Stream size : 7.84 GiB (85%)
Title : Spawn.Director's.Cut.1997.1080p.BluRay.DTS.BY.ENT-HD
Writing library : x264 core 125 r2208 d9d2288
Encoding settings : cabac=1 / ref=4 / deblock=1:-1:-1 / analyse=0x3:0x133 / me=umh / subme=10 / psy=1 / psy_rd=1.00:0.15 / mixed_ref=1 / me_range=24 / chroma_me=1 / trellis=2 / 8x8dct=1 / cqm=0 / deadzone=21,11 / fast_pskip=1 / chroma_qp_offset=-3 / threads=12 / lookahead_threads=2 / sliced_threads=0 / nr=0 / decimate=1 / interlaced=0 / bluray_compat=0 / constrained_intra=0 / bframes=8 / b_pyramid=2 / b_adapt=2 / b_bias=0 / direct=3 / weightb=1 / open_gop=0 / weightp=2 / keyint=240 / keyint_min=23 / scenecut=40 / intra_refresh=0 / rc_lookahead=60 / rc=2pass / mbtree=1 / bitrate=11397 / ratetol=1.0 / qcomp=0.60 / qpmin=10 / qpmax=51 / qpstep=4 / cplxblur=20.0 / qblur=0.5 / ip_ratio=1.40 / aq=1:1.00
Language : English
Default : Yes
Forced : No

Audio #1
ID : 2
Format : DTS
Format/Info : Digital Theater Systems
Mode : 16
Format settings, Endianness : Big
Codec ID : A_DTS
Duration : 1 h 38 min
Bit rate mode : Constant
Bit rate : 1 509 kb/s
Channel(s) : 6 channels
Channel positions : Front: L C R, Side: L R, LFE
Sampling rate : 48.0 kHz
Frame rate : 93.750 FPS (512 spf)
Bit depth : 24 bits
Compression mode : Lossy
Stream size : 1.04 GiB (11%)
Title : Eng DTS
Language : English
Default : No
Forced : No

Audio #2
ID : 3
Format : AC-3
Format/Info : Audio Coding 3
Mode extension : CM (complete main)
Format settings, Endianness : Big
Codec ID : A_AC3
Duration : 1 h 38 min
Bit rate mode : Constant
Bit rate : 448 kb/s
Channel(s) : 6 channels
Channel positions : Front: L C R, Side: L R, LFE
Sampling rate : 48.0 kHz
Frame rate : 31.250 FPS (1536 spf)
Compression mode : Lossy
Delay relative to video : 2 s 500 ms
Stream size : 315 MiB (3%)
Title : Thai AC3 5.1
Language : Thai
Default : Yes
Forced : Yes

Text #1
ID : 4
Format : UTF-8
Codec ID : S_TEXT/UTF8
Codec ID/Info : UTF-8 Plain Text
Duration : 1 h 30 min
Bit rate : 56 b/s
Count of elements : 1210
Stream size : 37.3 KiB (0%)
Title : Eng
Language : English
Default : No
Forced : No

Text #2
ID : 5
Format : VobSub
Muxing mode : zlib
Codec ID : S_VOBSUB
Codec ID/Info : Picture based subtitle format used on DVDs
Duration : 1 h 30 min
Bit rate : 1 639 b/s
Count of elements : 1001
Stream size : 1.06 MiB (0%)
Title : Thai DVD MASTER
Language : Thai
Default : Yes
Forced : Yes

Text #3
ID : 6
Format : VobSub
Muxing mode : zlib
Codec ID : S_VOBSUB
Codec ID/Info : Picture based subtitle format used on DVDs
Duration : 1 h 30 min
Bit rate : 1 639 b/s
Count of elements : 1001
Stream size : 1.06 MiB (0%)
Title : Thai Yellow DVD MASTER
Language : Thai
Default : No
Forced : Yes


















เจ้าหน้าที่ซีไอเอถูกบัญชาการให้ปฏิบัติหน้าที่แสนโห ด โดยการเผาโรงงานอาวุธ แต่ผลการปฏิบัติในครั้งนี้ทำให้เขาเสียชีวิต แต่ด้วยความห่วงหาที่มีต่อภรรยาทำให้เขาต่อรองกับปิศ าจในการคืนชีพอีกครั้งในรูปของ Spawn

หน้าที่ของปิศาจที่ได้มอบหมายให้เขา คือ การนำทัพเหล่าปิศาจจากขุมนรกต่อสู้กับเหล่าทัพดินแดน มนุษย์เพื่อยึดครองโลก ทั้งหมดนี้เพื่อแลกเปลี่ยนกับการมองเห็นหน้าภรรยาเขา ไกลๆ เท่านั้น เพราะหน้าตาที่ไม่เหลือเค้าเดิมและยังน่าเกลียด เขาจึงไม่กล้าแม้แต่จะให้ภรรยาเห็น




DOWNLOAD





ติดตามหนังอื่นๆได้ที่