+ Reply to Thread
Results 1 to 2 of 2
  1. #1
    Administrators Duckload.us's Avatar
    Join Date
    Dec 2010
    Posts
    80,494
    Thanks
    9
    Thanked 86,485 Times in 41,117 Posts

    Question []-[]-[Ҿҡ iTunes] War for the Planet of the Apes (2017): ʧҹ-Encode.AC-3.1080p. [Modified]-[ҡç] -[§ç 2.0 Ѵ][§ѧ]

    cornfile.com


    General
    Unique ID : 193953496654221609633436963571191413491 (0x91EA15AF1018A27D8A04DBDFB68A7AF3)
    Format : Matroska
    Format version : Version 4 / Version 2
    File size : 4.65 GiB
    Duration : 2 h 20 min
    Overall bit rate : 4 754 kb/s
    Encoded date : UTC 2017-10-10 13:18:28
    Writing application : mkvmerge v15.0.0 ( Duel with the Devil ) 64-bit
    Writing library : libebml v1.3.5 + libmatroska v1.4.5

    Video
    ID : 1
    Format : AVC
    Format/Info : Advanced Video Codec
    Format profile : [email protected]
    Format settings, CABAC : Yes
    Format settings, RefFrames : 5 frames
    Codec ID : V_MPEG4/ISO/AVC
    Duration : 2 h 20 min
    Bit rate : 4 562 kb/s
    Width : 1 916 pixels
    Height : 796 pixels
    Display aspect ratio : 2.40:1
    Frame rate mode : Constant
    Frame rate : 23.976 (23976/1000) FPS
    Color space : YUV
    Chroma subsampling : 4:2:0
    Bit depth : 8 bits
    Scan type : Progressive
    Bits/(Pixel*Frame) : 0.125
    Stream size : 4.47 GiB (96%)
    Language : English
    Default : Yes
    Forced : No
    Color range : Limited
    Color primaries : BT.709
    Transfer characteristics : BT.709
    Matrix coefficients : BT.709

    Audio
    ID : 2
    Format : AC-3
    Format/Info : Audio Coding 3
    Format settings, Endianness : Big
    Codec ID : A_AC3
    Duration : 2 h 18 min
    Bit rate mode : Constant
    Bit rate : 192 kb/s
    Channel(s) : 2 channels
    Channel positions : Front: L R
    Sampling rate : 48.0 kHz
    Frame rate : 31.250 FPS (1536 SPF)
    Bit depth : 16 bits
    Compression mode : Lossy
    Delay relative to video : 2 s 0 ms
    Stream size : 191 MiB (4%)
    Title : ThaiRong AC-3 2.0
    Language : Thai
    Service kind : Complete Main
    Default : Yes
    Forced : Yes






    Download: cornfile
    http://cornfile.com/ksyh2nv88aue
    Download: mekafile
    http://www.mekafile.com/dl.php?f=r62d1cbwfsWJ

  2. The Following 4 Users Say Thank You to Duckload.us For This Useful Post:

    goda (10-13-2017), prasert.pp (10-11-2017), PUNKROCK (10-11-2017), Wesker_TOT (10-11-2017)

  3. #2
    Senior Member
    Join Date
    Dec 2013
    Posts
    791
    Thanks
    2,683
    Thanked 0 Times in 0 Posts
    !! Ҿ....

    ͺسФѺ....

Thread Information

Users Browsing this Thread

There are currently 1 users browsing this thread. (0 members and 1 guests)

     

Posting Permissions

  • You may not post new threads
  • You may not post replies
  • You may not post attachments
  • You may not edit your posts