+ Reply to Thread
Results 1 to 1 of 1
  1. #1
    Administrators Duckload.us's Avatar
    Join Date
    Dec 2010
    Posts
    81,645
    Thanks
    9
    Thanked 87,266 Times in 41,606 Posts

    Angry [չ]- Wukong (2017) : ˧ͤ Դ෾ҹ [ҡ 5.1 + §չ 5.1] [] [§ + Ѻ ҡմ] -MiniBD.H.264.1080p. [Modified]-[ҡ ]

    cornfile.com


    wrote:


    The Legend of Wukong ˧ͤ Ҫҹն蹡˹Դغǡ ١ǨիѾä»ͧԵ
    Ѻêͨҡ⾸ѵ ͧ 㹢ǡѹҧ¹Ѻͺ˹ҷҡ ѧè
    繷١ǢͧǨкؤŷŧѡ šѺ˹ǧä ¹ԧ ͧѡͧǨ Ѻѭҡ׺ҢŢͧ˧ͤ
    еҡҾҹѹӹѡ¹ Сþ駹зԵͧ¹ ԧ!!!



    wrote:


    Format : Matroska
    Format version : Version 4 / Version 2
    File size : 3.41 GiB
    Duration : 2 h 3 min
    Overall bit rate : 3 963 kb/s
    Movie name : Wu Kong 2017.1080p BluRay x264 AC3 5.1
    Encoded date : UTC 2017-11-13 16:23:24
    Writing application : mkvmerge v7.7.0 ( Six Voices ) 32bit built on Feb 28 2015 23:23:00
    Writing library : libebml v1.3.1 + libmatroska v1.4.2

    Video
    ID : 3
    Format : AVC
    Format/Info : Advanced Video Codec
    Format profile : [email protected]
    Format settings, CABAC : Yes
    Format settings, ReFrames : 5 frames
    Codec ID : V_MPEG4/ISO/AVC
    Duration : 2 h 3 min
    Bit rate : 3 000 kb/s
    Width : 1 920 pixels
    Height : 800 pixels
    Display aspect ratio : 2.40:1
    Frame rate mode : Constant
    Frame rate : 24.000 FPS
    Color space : YUV
    Chroma subsampling : 4:2:0
    Bit depth : 8 bits
    Scan type : Progressive
    Bits/(Pixel*Frame) : 0.081
    Stream size : 2.58 GiB (76%)
    Title : Wu Kong 2017.1080p BluRay x264
    Writing library : x264 core 150 r2833 df79067
    Encoding settings : cabac=1 / ref=5 / deblock=1:-1:-1 / analyse=0x3:0x133 / me=umh / subme=9 / psy=1 / psy_rd=1.00:0.15 / mixed_ref=1 / me_range=24 / chroma_me=1 / trellis=2 / 8x8dct=1 / cqm=0 / deadzone=21,11 / fast_pskip=0 / chroma_qp_offset=-3 / threads=12 / lookahead_threads=1 / sliced_threads=0 / nr=200 / decimate=1 / interlaced=0 / bluray_compat=0 / constrained_intra=0 / bframes=3 / b_pyramid=2 / b_adapt=2 / b_bias=0 / direct=3 / weightb=1 / open_gop=0 / weightp=2 / keyint=250 / keyint_min=24 / scenecut=40 / intra_refresh=0 / rc_lookahead=60 / rc=2pass / mbtree=1 / bitrate=3000 / ratetol=1.0 / qcomp=0.60 / qpmin=0 / qpmax=69 / qpstep=4 / cplxblur=20.0 / qblur=0.5 / ip_ratio=1.40 / aq=1:1.00
    Language : Chinese
    Default : Yes
    Forced : No

    Audio #1
    ID : 1
    Format : AC-3
    Format/Info : Audio Coding 3
    Mode extension : CM (complete main)
    Format settings, Endianness : Big
    Codec ID : A_AC3
    Duration : 2 h 3 min
    Bit rate mode : Constant
    Bit rate : 448 kb/s
    Channel(s) : 6 channels
    Channel positions : Front: L C R, Side: L R, LFE
    Sampling rate : 48.0 kHz
    Frame rate : 31.250 FPS (1536 spf)
    Bit depth : 16 bits
    Compression mode : Lossy
    Stream size : 394 MiB (11%)
    Title : Thai 5.1 Thai DVD Master
    Language : Thai
    Default : Yes
    Forced : Yes

    Audio #2
    ID : 4
    Format : AC-3
    Format/Info : Audio Coding 3
    Mode extension : CM (complete main)
    Format settings, Endianness : Big
    Codec ID : A_AC3
    Duration : 2 h 3 min
    Bit rate mode : Constant
    Bit rate : 256 kb/s
    Channel(s) : 6 channels
    Channel positions : Front: L C R, Side: L R, LFE
    Sampling rate : 48.0 kHz
    Frame rate : 31.250 FPS (1536 spf)
    Bit depth : 16 bits
    Compression mode : Lossy
    Stream size : 226 MiB (6%)
    Language : Chinese
    Default : No
    Forced : No

    Audio #3
    ID : 5
    Format : AC-3
    Format/Info : Audio Coding 3
    Mode extension : CM (complete main)
    Format settings, Endianness : Big
    Codec ID : A_AC3
    Duration : 2 h 3 min
    Bit rate mode : Constant
    Bit rate : 256 kb/s
    Channel(s) : 6 channels
    Channel positions : Front: L C R, Side: L R, LFE
    Sampling rate : 48.0 kHz
    Frame rate : 31.250 FPS (1536 spf)
    Bit depth : 16 bits
    Compression mode : Lossy
    Stream size : 226 MiB (6%)
    Language : Chinese
    Default : No
    Forced : No

    Text
    ID : 2
    Format : VobSub
    Codec ID : S_VOBSUB
    Codec ID/Info : Picture based subtitle format used on DVDs
    Duration : 1 h 55 min
    Bit rate : 3 451 b/s
    Count of elements : 1157
    Stream size : 2.84 MiB (0%)
    Language : Thai
    Default : No
    Forced : No


    wrote:

    SS 껨ҡ









    Download: cornfile
    3.4 GB http://cornfile.com/0944a5f0b8se
    2.5 GB http://cornfile.com/zqa0v20302z4
    Download: mekafile
    meka ѾѺ**ԴѾ˹ѧ M**

  2. The Following User Says Thank You to Duckload.us For This Useful Post:

    NaiWan (11-14-2017)

Thread Information

Users Browsing this Thread

There are currently 1 users browsing this thread. (0 members and 1 guests)

     

Posting Permissions

  • You may not post new threads
  • You may not post replies
  • You may not post attachments
  • You may not edit your posts