+ Reply to Thread
Results 1 to 1 of 1
  1. #1
    Administrators Duckload.us's Avatar
    Join Date
    Dec 2010
    Posts
    83,049
    Thanks
    9
    Thanked 88,021 Times in 42,062 Posts

    Question [ฝรั่ง]-The Fundamentals of Caring-บทเรียนพื้นฐานของการใส่ใจ (2016) [บรรยายไทยมาสเตอร์ Netflix] Craig Roberts, Paul Rudd, Selena Gomez แสดงนำ-Encode.H.264.1080p. [Rip]-[Soundtrack บรรยายไทย]

    cornfile.com



    The Fundamentals of Caring




    Rating: 7.3/10 Year: 2016 Genres: Comedy / Drama Runtime: 97 min Language: English Director: Rob Burnett Writers: Rob Burnett / Jonathan Evison Cast: Alex Huff / Donna Biscoe / Paul Rudd Plot:

    A man suffering an incredible amount of loss enrolls in a class about care-giving that changes his perspective on life.

    The Fundamentals of Caring (2016) บทเรียนพื้นฐานของการใส่ใจ

    เรื่องย่อ : The Fundamentals of Caring ภาพยนตร์แนวคอมเมดี้ที่สร้างแรงดลใจ เล่าราวของเด็กไม่สมประกอบคนหนึ่งแล้วก็ผู้ดูแลที่เร ิ่มเดินทางไปตามสถานที่สำคัญต่างๆจนถึงนำพวกเขาไปสู่ ความมุ่งมาดแล้วก็มิตรภาพ




    General
    Unique ID : 203718114840077036801821156186918367749 (0x9942AE87B8FAF5F7848C4284C5C63205)
    Format : Matroska
    Format version : Version 4 / Version 2
    File size : 3.31 GiB
    Duration : 1 h 37 min
    Overall bit rate : 4 879 kb/s
    Encoded date : UTC 2017-11-23 05:15:14
    Writing application : mkvmerge v18.0.0 ( Apricity ) 64-bit
    Writing library : libebml v1.3.5 + libmatroska v1.4.8

    Video
    ID : 1
    Format : AVC
    Format/Info : Advanced Video Codec
    Format profile : [email protected]
    Format settings, CABAC : Yes
    Format settings, ReFrames : 5 frames
    Codec ID : V_MPEG4/ISO/AVC
    Duration : 1 h 33 min
    Bit rate : 4 664 kb/s
    Width : 1 920 pixels
    Height : 800 pixels
    Display aspect ratio : 2.40:1
    Frame rate mode : Constant
    Frame rate : 23.976 (24000/1001) FPS
    Color space : YUV
    Chroma subsampling : 4:2:0
    Bit depth : 8 bits
    Scan type : Progressive
    Bits/(Pixel*Frame) : 0.127
    Stream size : 3.04 GiB (92%)
    Writing library : x264 core 144 r2525 40bb568
    Encoding settings : cabac=1 / ref=5 / deblock=1:-3:-3 / analyse=0x3:0x133 / me=umh / subme=10 / psy=1 / psy_rd=1.00:0.00 / mixed_ref=1 / me_range=48 / chroma_me=1 / trellis=2 / 8x8dct=1 / cqm=0 / deadzone=21,11 / fast_pskip=1 / chroma_qp_offset=-2 / threads=12 / lookahead_threads=2 / sliced_threads=0 / nr=0 / decimate=1 / interlaced=0 / bluray_compat=0 / constrained_intra=0 / bframes=8 / b_pyramid=2 / b_adapt=2 / b_bias=0 / direct=3 / weightb=1 / open_gop=0 / weightp=2 / keyint=250 / keyint_min=23 / scenecut=40 / intra_refresh=0 / rc=crf / mbtree=0 / crf=17.0 / qcomp=0.60 / qpmin=0 / qpmax=69 / qpstep=4 / ip_ratio=1.30 / pb_ratio=1.20 / aq=3:0.80
    Language : English
    Default : Yes
    Forced : No

    Audio
    ID : 2
    Format : AC-3
    Format/Info : Audio Coding 3
    Mode extension : CM (complete main)
    Format settings, Endianness : Big
    Codec ID : A_AC3
    Duration : 1 h 37 min
    Bit rate mode : Constant
    Bit rate : 384 kb/s
    Channel(s) : 6 channels
    Channel positions : Front: L C R, Side: L R, LFE
    Sampling rate : 48.0 kHz
    Frame rate : 31.250 FPS (1536 spf)
    Compression mode : Lossy
    Stream size : 267 MiB (8%)
    Language : English
    Default : Yes
    Forced : No

    Text #1
    ID : 3
    Format : UTF-8
    Codec ID : S_TEXT/UTF8
    Codec ID/Info : UTF-8 Plain Text
    Duration : 1 h 27 min
    Bit rate : 60 b/s
    Count of elements : 1018
    Stream size : 38.8 KiB (0%)
    Language : English
    Default : No
    Forced : No

    Text #2
    ID : 4
    Format : PGS
    Muxing mode : zlib
    Codec ID : S_HDMV/PGS
    Codec ID/Info : Picture based subtitle format used on BDs/HD-DVDs
    Duration : 1 h 27 min
    Bit rate : 19.8 kb/s
    Count of elements : 2012
    Stream size : 12.4 MiB (0%)
    Title : Thai PGS
    Language : Thai
    Default : Yes
    Forced : No

    Text #3
    ID : 5
    Format : VobSub
    Muxing mode : zlib
    Codec ID : S_VOBSUB
    Codec ID/Info : Picture based subtitle format used on DVDs
    Duration : 1 h 27 min
    Bit rate : 4 906 b/s
    Count of elements : 1006
    Stream size : 3.08 MiB (0%)
    Language : Thai
    Default : No
    Forced : No










    Download: cornfile
    http://cornfile.com/t9jw3cv62i2t
    Download: mekafile
    http://www.mekafile.com/dl.php?f=hpa569byhHAt

  2. The Following User Says Thank You to Duckload.us For This Useful Post:

    mta28 (12-09-2017)

+ Reply to Thread

Thread Information

Users Browsing this Thread

There are currently 1 users browsing this thread. (0 members and 1 guests)

     

Posting Permissions

  • You may not post new threads
  • You may not post replies
  • You may not post attachments
  • You may not edit your posts