+ Reply to Thread
Results 1 to 3 of 3
  1. #1
    Administrators Duckload.us's Avatar
    Join Date
    Dec 2010
    Posts
    94,226
    Thanks
    9
    Thanked 96,734 Times in 46,504 Posts

    Question [ฝรั่ง]-[* ใหม่!ร้อนๆเสียงไทยมาสเตอร์ *] Guardian Of The Tomb (2018) : ขุมทรัพย์โคตรแมงมุม • [พากย์ไทย 5.1+ เสียงอังกฤษ 5.1] • [ไม่มีบรรยาย] • [เสียงไทย Master ] • WEB-DL.H.264.1080p [Master]-[พากย์ไทย]

    [* ใหม่!ร้อนๆเสียงไทยมาสเตอร์ *] Guardian Of The Tomb (2018) : ขุมทรัพย์โคตรแมงมุม • [พากย์ไทย 5.1+ เสียงอังกฤษ 5.1] • [ไม่มีบรรยาย] • [เสียงไทย Master ] • WEB-DL.H.264.1080p [RIP From DVD MASTER]



    #ทะลวงอาณาจักรพันปี!..

    #ล่าขุมทรัพย์แมงมุมมรณะ!

    #เสียงไทยจาก DVD Master

    ตัวอย่าง
    https://www.youtube.com/watch?v=E0SBvyq5T30



    Guardian Of The Tomb-ขุมทรัพย์โคตรแมงมุม

    เรื่องราวของทีมนักวิทยาศาสตร์ที่ทำการค้นพบแห่งศตวร รษ การผจญภัยในเขาวงกตดึกดำบรรพ์

    พวกเขาต้องต่อสู้เอาชีวิตรอดจากอสุรกาย, แมงมุมยักษ์กินคน, สัตว์อสรพิษ และฝูงผีดิบที่ซ่อนตัวอยู่ในวงกต เพื่อค้นพบความลับจักรวรรดิจีนที่เก็บงำมากว่า 2,000 ปี

    เมื่อความลับของโลกที่ถูกปกปิดมากว่าสองพันปีกำลังจะ ถูกค้นพบ! สามนักวิทยาศาสตร์จะพาทุกคนบุกฝ่าแดนนรกสุสานเขาวงกต ดึกดำบรรพ์



    Guardian Of The Tomb-ขุมทรัพย์โคตรแมงมุม

    เป็นการรวมนักแสดงขวัญใจแฟนหนัง นำโดยนักแสดงสาวสวยเบอร์หนึ่งของเอเชียอย่าง หลี่ ปิงปิง

    ซึ่งความฮอตของเธอนั้นมาแรงจนได้ร่วมแสดงในหนังฮอลลี วูดฟอร์มยักษ์อย่าง Transformers : Age of Extinction และ Resident Evil: Retribution มาแล้ว

    ไม่เพียงแค่นี้หนังยังได้สองหนุ่มหล่อจากสองทวีป ทั้งซุปตาร์ดังฝั่งไต้หวัน อู๋จุน ผู้เป็นที่รู้จักจากซีรีส์ ปิ๊งรักสลับขั้ว และภาพยนตร์ 14 Blades

    ร่วมด้วยหนุ่มหล่อแอคชั่นสตาร์จอมพลังจากผลงานดัง Hercules, The Twilight Saga อย่าง เคลแลน ลุตซ์ อีกด้วย

    ผ่านการกำกับโดย คิมเบิล เรนดัล ผู้กำกับสายเลือดแอคชั่น-ผจญภัยตัวจริงจากเครดิตการเป็นผู้ช่วยผู้กำกับในหนัง ฮิตสนั่น

    อย่าง The Matrix Reloaded, Underworld: Rise of the Lycans, Gods of Egypt

    พร้อมร่วมเนรมิตการผจญภัยให้ยิ่งตื่นตะลึงโดยทีมวิชว ลเอฟเฟกต์จาก Thor: Ragnarok, King Kong และ Mad Max: Fury Road!!!

    File size : 3.39 GiB

    Duration : 1 h 30 min

    Overall bit rate : 5 367 kb/s

    Movie name : Guardians.of.the.Tomb.2018.1080p.WEB-DL.DD5.1.H264-THMASTER

    Encoded date : UTC 2018-05-10 23:41:35

    Writing application : mkvmerge v7.7.0 ( Six Voices ) 32bit built on Feb 28 2015 23:23:00

    Writing library : libebml v1.3.1 + libmatroska v1.4.2



    Video

    ID : 1

    Format : AVC

    Format/Info : Advanced Video Codec

    Format profile : [email protected]

    Format settings, CABAC : Yes

    Format settings, ReFrames : 5 frames

    Codec ID : V_MPEG4/ISO/AVC

    Duration : 1 h 30 min

    Bit rate : 4 533 kb/s

    Width : 1 904 pixels

    Height : 800 pixels

    Display aspect ratio : 2.40:1

    Frame rate mode : Constant

    Frame rate : 23.976 (24000/1001) FPS

    Color space : YUV

    Chroma subsampling : 4:2:0

    Bit depth : 8 bits

    Scan type : Progressive

    Bits/(Pixel*Frame) : 0.124

    Stream size : 2.87 GiB (84%)

    Title : Guardians.of.the.Tomb.2018.1080p.WEB-DL.DD5.1.H264-THMASTER

    Language : English

    Default : Yes

    Forced : No

    Color range : Limited

    Color primaries : BT.709

    Transfer characteristics : BT.709

    Matrix coefficients : BT.709



    Audio #1

    ID : 2

    Format : AAC

    Format/Info : Advanced Audio Codec

    Format profile : LC

    Codec ID : A_AAC

    Duration : 1 h 30 min

    Bit rate : 447 kb/s

    Channel(s) : 6 channels

    Channel positions : Front: L C R, Side: L R, LFE

    Sampling rate : 48.0 kHz

    Frame rate : 46.875 FPS (1024 spf)

    Compression mode : Lossy

    Delay relative to video : -42 ms

    Stream size : 289 MiB (8%)

    Title : Thai AC3 5.1

    Language : Thai

    Default : Yes

    Forced : Yes



    Audio #2

    ID : 3

    Format : AC-3

    Format/Info : Audio Coding 3

    Mode extension : CM (complete main)

    Format settings, Endianness : Big

    Codec ID : A_AC3

    Duration : 1 h 30 min

    Bit rate mode : Constant

    Bit rate : 384 kb/s

    Channel(s) : 6 channels

    Channel positions : Front: L C R, Side: L R, LFE

    Sampling rate : 48.0 kHz

    Frame rate : 31.250 FPS (1536 spf)

    Bit depth : 16 bits

    Compression mode : Lossy

    Delay relative to video : -42 ms

    Stream size : 249 MiB (7%)

    Title : en 5.1

    Language : English

    Default : No

    Forced : No




    Download: cornfile
    http://cornfile.com/gzwbn6ck8civ
    Download: mekafile
    http://www.mekafile.com/dl.php?f=yO62f1bEVGSZ

  2. The Following 6 Users Say Thank You to Duckload.us For This Useful Post:

    bigbang06 (05-11-2018), mta28 (05-13-2018), NaiWan (05-12-2018), noi54 (05-12-2018), smakha (05-15-2018), Tellmon (05-13-2018)

  3. #2
    Senior Member
    Join Date
    Jun 2014
    Posts
    274
    Thanks
    0
    Thanked 0 Times in 0 Posts
    ขอบคุณครับ

  4. #3
    Senior Member
    Join Date
    Dec 2013
    Posts
    1,227
    Thanks
    3,151
    Thanked 0 Times in 0 Posts
    ขอบคุณครับ...

+ Reply to Thread

Thread Information

Users Browsing this Thread

There are currently 1 users browsing this thread. (0 members and 1 guests)

     

Posting Permissions

  • You may not post new threads
  • You may not post replies
  • You may not post attachments
  • You may not edit your posts