+ Reply to Thread
Results 1 to 1 of 1
  1. #1
    Administrators Duckload.us's Avatar
    Join Date
    Dec 2010
    Posts
    96,809
    Thanks
    9
    Thanked 98,302 Times in 47,299 Posts

    Question [เกาหลี]-Netflix.The.Chase.2017.ล่าฆาตกรวิปริต.1080p.NF.WEB-DL.DD5.1.x264-WEB-DL.H.264.1080p. [Master]-[Soundtrack บรรยายไทย]





    เมื่อผู้คนหลายชีวิตในเมืองกลายเป็นศพ เจ้าของตึกอารมณ์ร้ายได้พบกับชายคนหนึ่งที่เล่าให้เข าฟังถึงคดีฆาตกรรมต่อเนื่องปริศนาเมื่อ 30 ปีก่อน

    Format : Matroska
    Format version : Version 4 / Version 2
    File size : 4.04 GiB
    Duration : 1 h 50 min
    Overall bit rate mode : Variable
    Overall bit rate : 5 246 kb/s
    Encoded date : UTC 2018-05-13 10:22:38
    Writing application : mkvmerge v23.0.0 ( The Bride Said No ) 64-bit
    Writing library : libebml v1.3.6 + libmatroska v1.4.9

    Video
    ID : 1
    Format : AVC
    Format/Info : Advanced Video Codec
    Format profile : [email protected]
    Format settings, CABAC : Yes
    Format settings, ReFrames : 3 frames
    Codec ID : V_MPEG4/ISO/AVC
    Duration : 1 h 50 min
    Bit rate mode : Variable
    Bit rate : 4 870 kb/s
    Maximum bit rate : 7 305 kb/s
    Width : 1 920 pixels
    Height : 1 080 pixels
    Display aspect ratio : 16:9
    Frame rate mode : Constant
    Frame rate : 23.976 (24000/1001) FPS
    Color space : YUV
    Chroma subsampling : 4:2:0
    Bit depth : 8 bits
    Scan type : Progressive
    Bits/(Pixel*Frame) : 0.098
    Stream size : 3.74 GiB (93%)
    Writing library : x264 core 148 r2714 2daf636
    Encoding settings : cabac=1 / ref=3 / deblock=1:0:0 / analyse=0x1:0x111 / me=umh / subme=10 / psy=1 / psy_rd=1.00:0.00 / mixed_ref=1 / me_range=24 / chroma_me=1 / trellis=2 / 8x8dct=0 / cqm=0 / deadzone=21,11 / fast_pskip=1 / chroma_qp_offset=-2 / threads=8 / lookahead_threads=1 / sliced_threads=0 / nr=0 / decimate=1 / interlaced=0 / bluray_compat=0 / stitchable=1 / constrained_intra=0 / bframes=2 / b_pyramid=0 / b_adapt=2 / b_bias=0 / direct=3 / weightb=1 / open_gop=0 / weightp=2 / keyint=48 / keyint_min=25 / scenecut=0 / intra_refresh=0 / rc_lookahead=48 / rc=2pass / mbtree=1 / bitrate=4870 / ratetol=1.0 / qcomp=0.50 / qpmin=6 / qpmax=51 / qpstep=4 / cplxblur=20.0 / qblur=0.5 / vbv_maxrate=7305 / vbv_bufsize=9740 / nal_hrd=vbr / filler=0 / ip_ratio=1.40 / aq=1:1.00
    Default : Yes
    Forced : No

    Audio
    ID : 2
    Format : AC-3
    Format/Info : Audio Coding 3
    Mode extension : CM (complete main)
    Format settings, Endianness : Big
    Codec ID : A_AC3
    Duration : 1 h 50 min
    Bit rate mode : Constant
    Bit rate : 384 kb/s
    Channel(s) : 6 channels
    Channel positions : Front: L C R, Side: L R, LFE
    Sampling rate : 48.0 kHz
    Frame rate : 31.250 FPS (1536 spf)
    Bit depth : 16 bits
    Compression mode : Lossy
    Stream size : 303 MiB (7%)
    Title : Korean
    Language : Korean
    Default : Yes
    Forced : No

    Text #1
    ID : 3
    Format : UTF-8
    Codec ID : S_TEXT/UTF8
    Codec ID/Info : UTF-8 Plain Text
    Duration : 1 h 45 min
    Bit rate : 52 b/s
    Count of elements : 1308
    Stream size : 40.5 KiB (0%)
    Language : English
    Default : Yes
    Forced : No

    Text #2
    ID : 4
    Format : UTF-8
    Codec ID : S_TEXT/UTF8
    Codec ID/Info : UTF-8 Plain Text
    Duration : 1 h 45 min
    Bit rate : 83 b/s
    Count of elements : 1303
    Stream size : 64.1 KiB (0%)
    Language : Arabic
    Default : No
    Forced : No

    Text #3
    ID : 5
    Format : UTF-8
    Codec ID : S_TEXT/UTF8
    Codec ID/Info : UTF-8 Plain Text
    Duration : 1 h 45 min
    Bit rate : 52 b/s
    Count of elements : 1308
    Stream size : 40.6 KiB (0%)
    Language : Spanish
    Default : No
    Forced : No

    Text #4
    ID : 6
    Format : UTF-8
    Codec ID : S_TEXT/UTF8
    Codec ID/Info : UTF-8 Plain Text
    Duration : 1 h 45 min
    Bit rate : 57 b/s
    Count of elements : 1310
    Stream size : 44.5 KiB (0%)
    Language : French
    Default : No
    Forced : No

    Text #5
    ID : 7
    Format : UTF-8
    Codec ID : S_TEXT/UTF8
    Codec ID/Info : UTF-8 Plain Text
    Duration : 1 h 45 min
    Bit rate : 49 b/s
    Count of elements : 1278
    Stream size : 38.3 KiB (0%)
    Language : Japanese
    Default : No
    Forced : No

    Text #6
    ID : 8
    Format : UTF-8
    Codec ID : S_TEXT/UTF8
    Codec ID/Info : UTF-8 Plain Text
    Duration : 1 h 45 min
    Bit rate : 51 b/s
    Count of elements : 1301
    Stream size : 39.7 KiB (0%)
    Title : Brazilian
    Language : Portuguese
    Default : No
    Forced : No

    Text #7
    ID : 9
    Format : UTF-8
    Codec ID : S_TEXT/UTF8
    Codec ID/Info : UTF-8 Plain Text
    Duration : 1 h 45 min
    Bit rate : 114 b/s
    Count of elements : 1311
    Stream size : 87.9 KiB (0%)
    Language : Thai
    Default : No
    Forced : No

    Text #8
    ID : 10
    Format : UTF-8
    Codec ID : S_TEXT/UTF8
    Codec ID/Info : UTF-8 Plain Text
    Duration : 1 h 45 min
    Bit rate : 51 b/s
    Count of elements : 1305
    Stream size : 39.9 KiB (0%)
    Language : Turkish
    Default : No
    Forced : No

    Text #9
    ID : 11
    Format : UTF-8
    Codec ID : S_TEXT/UTF8
    Codec ID/Info : UTF-8 Plain Text
    Duration : 1 h 45 min
    Bit rate : 51 b/s
    Count of elements : 1335
    Stream size : 39.3 KiB (0%)
    Title : Simplified
    Language : Chinese
    Default : No
    Forced : No

    Text #10
    ID : 12
    Format : UTF-8
    Codec ID : S_TEXT/UTF8
    Codec ID/Info : UTF-8 Plain Text
    Duration : 1 h 45 min
    Bit rate : 52 b/s
    Count of elements : 1333
    Stream size : 40.1 KiB (0%)
    Title : Traditional
    Language : Chinese
    Default : No
    Forced : No
















    Download: cornfile
    http://cornfile.com/n0us4ryjk7g6
    Download: mekafile
    http://www.mekafile.com/dl.php?f=aea913bF7Oos

  2. The Following User Says Thank You to Duckload.us For This Useful Post:

    apichartdear (05-16-2018)

+ Reply to Thread

Thread Information

Users Browsing this Thread

There are currently 1 users browsing this thread. (0 members and 1 guests)

     

Posting Permissions

  • You may not post new threads
  • You may not post replies
  • You may not post attachments
  • You may not edit your posts