+ Reply to Thread
Results 1 to 5 of 5
  1. #1
    Administrators Duckload.us's Avatar
    Join Date
    Dec 2010
    Posts
    92,079
    Thanks
    9
    Thanked 94,676 Times in 45,590 Posts

    Question []-[* ҾѴ!! + §ç 5.1 *] Pacific Rim: Uprising (2018) : ừԿԤ ѵԾԡš [1080p] [* MULTi.WEB.AC-3.THR5.1.H264 [email protected] *] [ [ҡç 5.1 + §ѧ 5.1]





    Ҿ¹ŧҹͧ .ʵ . 乷 ѴմѹẺ
    ਤ ˹ 繼ѧѺ¹͹Ҥŷԡ ֡仾ǾѹѺšҪҡ᷹˵ ҡѺѺ˹ҷŽ֡ա!
    &

    [email protected]
    ҡç 5.1 + §ѧ 5.1 + ѧ




    wrote:

    Pacific Rim 2 Ѻõͺšҧѵ ҡ͡šվѧҧ٧شʹͧѡ áŷ١ҧ͡ӨѴǡѹ äǺͧ§ ªҵẺԡѴ Pacific Rim Uprising ừԿԤ ѵԾԡš ¡ (Star Wars: The Force Awakens) ʴ㹺 ਤ ྐྵʵ ˹ 繼ѧѺ͹Ҥ 觾ͼ觴ѧͧЪԵͪªТͧ ªҵ˹ѵҴ 䤨 Ѻ ਤԡ֡仾ǾѹѺšҪҡ ¤ءç觡Ҷ١Ŵ͡ ͷͧҧѧѺš㺹 ҡѺ͡ش㹡ҹͻԸҹͧҨ ҡͧǼµ仹ҹͧ (Թ Ԥب) ӾŢѺҭ Ժʧ 㹵͹ǡǧҤصԸѺǧ ѧ§˹ǢͧǡҤ ˹㹡ءͧ͢š͵͵ ҹͧѧ¨СӨѴǡ٭Ҿѹ ਤ͡Ѻ (ʡ͵ ʵٴҡ Fast & Furious 8) ѡԹ仴¾ä繤觢ͧ 15 ( ໹ ѡʴ˹) кôúɨҡͧѧͧҤừԿԤ 繤ͺ§˹Ƿŧ 㹡á繡ͧѧͧѹçѧ شҷ»ҡ鹺׹š ǡҨҧҡóüشСõѹ ֡š繷Шѡ

    Pacific Rim Uprising ừԿԤ ѵԾԡš ӡѺʵǹ . 乷 (絿ԡͧ Daredevil, ʵͧSpartacus) ʴ¨ԧ¹, , ⨹Ъ



    wrote:
    * INFO Report !*
    Format : Matroska
    File size : 4.13 GiB
    Duration : 1 h 50 min
    Overall bit rate : 5 345 kb/s

    Movie name : Pacific.[email protected]CtHts

    Video
    ID : 1
    Format : AVC
    Format/Info : Advanced Video Codec
    Format profile : [email protected]
    Format settings : CABAC / 5 Ref Frames
    Format settings, CABAC : Yes
    Format settings, ReFrames : 5 frames
    Codec ID : V_MPEG4/ISO/AVC
    Duration : 1 h 50 min
    Bit rate : 4 511 kb/s
    Width : 1 920 pixels
    Height : 798 pixels
    Display aspect ratio : 2.40:1
    Frame rate mode : Constant
    Frame rate : 23.976 (24000/1001) FPS
    Color space : YUV
    Chroma subsampling : 4:2:0
    Bit depth : 8 bits
    Scan type : Progressive
    Bits/(Pixel*Frame) : 0.123
    Stream size : 3.49 GiB (84%)
    Title : Pacific.[email protected]CtHts
    Language : English
    Default : Yes
    Forced : No
    Color range : Limited
    Color primaries : BT.709
    Transfer characteristics : BT.709
    Matrix coefficients : BT.709

    Audio #1
    ID : 2
    Format : AC-3
    Format/Info : Audio Coding 3
    Codec ID : A_AC3
    Duration : 1 h 50 min
    Bit rate mode : Constant
    Bit rate : 448 kb/s
    Channel(s) : 6 channels
    Channel positions : Front: L C R, Side: L R, LFE
    Sampling rate : 48.0 kHz
    Frame rate : 31.250 FPS (1536 SPF)
    Bit depth : 16 bits
    Compression mode : Lossy
    Stream size : 355 MiB (8%)
    Title : THR 5.1 Modified By ~Mr.Captain~
    Language : Thai
    Service kind : Complete Main
    Default : Yes
    Forced : Yes

    Audio #2
    ID : 3
    Format : AC-3
    Format/Info : Audio Coding 3
    Codec ID : A_AC3
    Duration : 1 h 50 min
    Bit rate mode : Constant
    Bit rate : 384 kb/s
    Channel(s) : 6 channels
    Channel positions : Front: L C R, Side: L R, LFE
    Sampling rate : 48.0 kHz
    Frame rate : 31.250 FPS (1536 SPF)
    Bit depth : 16 bits
    Compression mode : Lossy
    Stream size : 304 MiB (7%)
    Title : English 5.1
    Language : English
    Service kind : Complete Main
    Default : No
    Forced : No

    Text
    ID : 4
    Format : UTF-8
    Codec ID : S_TEXT/UTF8
    Codec ID/Info : UTF-8 Plain Text
    Duration : 1 h 40 min
    Bit rate : 57 b/s
    Count of elements : 1128
    Stream size : 42.3 KiB (0%)
    Title : Englisg SRT
    Language : English
    Default : No
    Forced : No



    wrote:













    Quote:



    Download: cornfile
    http://cornfile.com/7xi1muk0ghoy
    Download: mekafile
    http://www.mekafile.com/dl.php?f=F1e2e4bG1GKg

  2. The Following 5 Users Say Thank You to Duckload.us For This Useful Post:

    9monsterz (06-11-2018), amorn wichian (06-07-2018), bigbang06 (06-08-2018), MidNightt (06-16-2018), Wesker_TOT (06-08-2018)

  3. #2
    Senior Member
    Join Date
    Dec 2013
    Posts
    1,174
    Thanks
    3,088
    Thanked 0 Times in 0 Posts
    ͺسФѺ...

  4. #3
    Senior Member
    Join Date
    Jun 2014
    Posts
    223
    Thanks
    0
    Thanked 0 Times in 0 Posts
    ͺسѺ

  5. #4
    Member
    Join Date
    Apr 2015
    Posts
    36
    Thanks
    0
    Thanked 0 Times in 0 Posts
    filecondo ͤѺ

  6. #5
    Senior Member 9monsterz's Avatar
    Join Date
    Jun 2014
    Posts
    603
    Thanks
    599
    Thanked 0 Times in 0 Posts
    ͺسҡѺ

Thread Information

Users Browsing this Thread

There are currently 1 users browsing this thread. (0 members and 1 guests)

     

Posting Permissions

  • You may not post new threads
  • You may not post replies
  • You may not post attachments
  • You may not edit your posts