+ Reply to Thread
Results 1 to 1 of 1
  1. #1
    Administrators Duckload.us's Avatar
    Join Date
    Dec 2010
    Posts
    97,170
    Thanks
    9
    Thanked 98,480 Times in 47,388 Posts

    Question [ฝรั่ง]-The Guilty - เส้นตาย สายระทึก (2018) [ผลงานทริลเลอร์ในพื้นที่จำกัดที่กวาดคำชมมากมายจากหล ายเทศกาล][Thai Subtitle By Unknown][Soundtrack บรรยายไทย]




    เรื่องย่อ
    แอซการ์ โฮล์ม นายตำรวจผู้ถูกย้ายให้มาทำงานนั่งโต๊ะในแผนกศูนย์แจ้ งเหตุในเมืองโคเปนเฮเกน
    เนื่องจากมีคดีความขึ้นศาล กำลังเจอกับเหตุการณ์ความเป็นความตายครั้งสำคัญ
    เมื่อ อีเบน หญิงสาวผู้ถูกลักพาตัวไป ได้โทรหาแอซการ์ เพื่อขอความช่วยเหลือ
    แอซการ์ จึงต้องทำทุกวิถีทางเพื่อที่จะช่วยเหลืออีเบน ให้ได้อย่างปลอดภัยไม่ว่าจะวิธีไหนก็ตาม


    ID: 2
    Format: AVC
    Format/Info : Advanced Video Codec
    Format profile: [email protected]
    Format settings: CABAC / 5 Ref Frames
    Format settings, CABAC: Yes
    Format settings, RefFrames: 5 frame
    Muxing mode: Header stripping
    Codec ID: V_MPEG4/ISO/AVC
    Duration: 1 h 24mn
    Bit rate: 4 586 Kbps
    Width: 1 920 pixel
    Height: 804 Pixel
    Display aspect ratio: 2.40:1
    Frame rate: 25.000 fps
    Color space: YUV
    Chroma subsampling: 4:2:0
    Bit depth: 8 bit
    Scan type: Progressive
    Bits/(Pixel*Frame): 0.119
    Stream size: 2.71 GiB (97%)
    Language: English
    Default: Yes
    Forced: No
    Color range: Limited
    Color primaries: BT.709
    Transfer characteristics: BT.709
    Matrix coefficients: BT.709

    Sound
    ID: 1
    Format: AAC LC
    Format/Info: Advanced Audio Codec Low Complexity
    Codec ID: A_AAC-2
    Duration: 1 h 24mn
    Bit rate: 119 Kbps
    Channel(s): 2 Channel
    Channel layout: L R
    Sampling rate: 48.0 KHz
    Frame rate: 46.875 fps (1024 SPF)
    Delay relative to video: -40ms
    Stream size: 72.0 MiB (3%)
    Language: Denmark
    Default: Yes
    Forced: No

    Subtitles
    English / Thai [Subtitle By Unknown]







    Download: cornfile
    http://cornfile.com/5hak31wlqj8q
    Download: mekafile
    http://www.mekafile.com/dl.php?f=1I7a04bNrp21

  2. The Following 5 Users Say Thank You to Duckload.us For This Useful Post:

    jackjangri (12-05-2018), Jodz14 (12-11-2018), noi54 (12-06-2018), Sherlock (12-05-2018), smakha (12-06-2018)

+ Reply to Thread

Thread Information

Users Browsing this Thread

There are currently 1 users browsing this thread. (0 members and 1 guests)

     

Posting Permissions

  • You may not post new threads
  • You may not post replies
  • You may not post attachments
  • You may not edit your posts