+ Reply to Thread
Results 1 to 3 of 3
  1. #1
    Administrators Duckload.us's Avatar
    Join Date
    Dec 2010
    Posts
    97,170
    Thanks
    9
    Thanked 98,480 Times in 47,388 Posts

    Question Shadow จอมคนกระบี่เงา เสียงไทยโรง จีน ซับจีนกับอังกฤษ [พากย์:เสียงไทยโรง,จีน][SUB:จีน อังกฤษ][1080p]



    Shadow จอมคนกระบี่เงา

    หมวดหมู่แอ็คชัน / ผจญภัย / ชีวิต
    ผู้กำกับ :จาง อี้โหมว
    นักแสดง :อู๋จุน, เติ้งเชา, ซุนลี่, กวนเสี่ยวถง, อู๋เหล่ย
    เรื่องย่อ
    เตรียมต้อนรับความมันส์เเละ วิจิตรงานสร้างของภาพยนตร์เรื่อง จอมคนกระบี่เงา จากงานกำกับของ จาง อี้ โหมว ผู้กำกับชาวจีน ชื่อดังที่เหล่ายุทธจักรจอมยุทธต่างให้การคารวะ โดยเนื้อหาของเรื่องจะเกิดขึ้นในยุคสามก๊ก ช่วงเวลาที่สับสนวุ่นวายที่สุดช่วงหนึ่งในแผ่นดินจีน เป็นเรื่องราว "เงา" บุคคลไร้ตัวตน ผู้ถูกกักขังเลี้ยงดูอยู่ในคุกใต้ดินตั้งแต่อายุ 8 ขวบ เพื่อให้เขาเป็นตัวตายตัวแทนของขุนพลใหญ่ แต่โชคชะตากลับพลิกผัน เมื่อเขาไม่ต้องการจมปลักอยู่ในความมืดมิด จึงลุกขึ้นสู้ เพื่อหวังทวงคืนสู่อิสรภาพ!! shadow, 2018 1080p.mkv
    Format : Matroska
    Format version : Version 4
    File size : 2.06 GiB
    Duration : 1 h 55 min
    Overall bit rate : 2 551 kb/s
    Encoded date : UTC 2018-12-05 01:26:23
    Writing application : mkvmerge v26.0.0 ('In The Game') 64-bit
    Writing library : libebml v1.3.6 + libmatroska v1.4.9

    Video
    ID : 1
    Format : AVC
    Format/Info : Advanced Video Codec
    Format profile : [email protected]
    Format settings : CABAC / 3 Ref Frames
    Format settings, CABAC : Yes
    Format settings, ReFrames : 3 frames
    Codec ID : V_MPEG4/ISO/AVC
    Duration : 1 h 55 min
    Bit rate : 2 262 kb/s
    Width : 1 920 pixels
    Height : 792 pixels
    Display aspect ratio : 2.40:1
    Frame rate mode : Constant
    Frame rate : 25.000 FPS
    Color space : YUV
    Chroma subsampling : 4:2:0
    Bit depth : 8 bits
    Scan type : Progressive
    Bits/(Pixel*Frame) : 0.059
    Stream size : 1.83 GiB (89%)
    Default : Yes
    Forced : No
    Color range : Limited
    Color primaries : BT.709
    Transfer characteristics : BT.709
    Matrix coefficients : BT.709

    Audio #1
    ID : 2
    Format : AAC LC
    Format/Info : Advanced Audio Codec Low Complexity
    Codec ID : A_AAC-2
    Duration : 1 h 55 min
    Bit rate : 192 kb/s
    Channel(s) : 2 channels
    Channel layout : L R
    Sampling rate : 44.1 kHz
    Frame rate : 43.066 FPS (1024 SPF)
    Compression mode : Lossy
    Delay relative to video : -80 ms
    Stream size : 157 MiB (7%)
    Default : No
    Forced : No

    Audio #2
    ID : 3
    Format : AAC LC
    Format/Info : Advanced Audio Codec Low Complexity
    Codec ID : A_AAC-2
    Duration : 1 h 55 min
    Bit rate : 96.0 kb/s
    Channel(s) : 2 channels
    Channel layout : L R
    Sampling rate : 44.1 kHz
    Frame rate : 43.066 FPS (1024 SPF)
    Compression mode : Lossy
    Delay relative to video : -80 ms
    Stream size : 79.4 MiB (4%)
    Language : Thai
    Default : Yes
    Forced : No




    Download: cornfile
    http://cornfile.com/bswjl2nwcvu7
    Download: mekafile
    http://www.mekafile.com/dl.php?f=lH4649bNro33

  2. The Following 3 Users Say Thank You to Duckload.us For This Useful Post:

    noi54 (12-06-2018), roc_dave (12-05-2018), sasithep (12-07-2018)

  3. #2
    Senior Member
    Join Date
    Oct 2013
    Posts
    1,361
    Thanks
    0
    Thanked 0 Times in 0 Posts
    ขอบคุณครับ

  4. #3
    Senior Member gozilla02's Avatar
    Join Date
    Jul 2012
    Posts
    197
    Thanks
    73
    Thanked 1 Time in 1 Post
    ขอบคุณครับ
    http://rabbitfileloveav.blogspot.com/ โหลดหนัง AV 18+ใหม่ล่าสุด อัพเดตทุกวัน มีทุกแนว 1080P Cornfile 10000 เรื่อง

+ Reply to Thread

Thread Information

Users Browsing this Thread

There are currently 1 users browsing this thread. (0 members and 1 guests)

     

Posting Permissions

  • You may not post new threads
  • You may not post replies
  • You may not post attachments
  • You may not edit your posts