+ Reply to Thread
Results 1 to 3 of 3
  1. #1
    Administrators Duckload.us's Avatar
    Join Date
    Dec 2010
    Posts
    101,723
    Thanks
    9
    Thanked 103,609 Times in 49,413 Posts

    Question [ฝรั่ง]-Mortal Engines (2018) สมรภูมิล่าเมือง จักรกลมรณะ [1080p.KORSUB.HDRip.x264.AC-3]-WEB-DL.H.264.1080p. [Modified]-[พากย์ไทยโรง]



    Mortal Engines



    Rating: 6.4/10 Year: 2018 Genres: Action / Adventure / Fantasy / Sci-Fi / Thriller Runtime: 128 min Language: English Director: Christian Rivers Writers: Fran Walsh / Philippa Boyens / Peter Jackson Cast: Hera Hilmar / Robert Sheehan / Hugo Weavingโ€ฆ Plot:

    A mysterious young woman, Hester Shaw, emerges as the only one who can stop a giant, predator city on wheels devouring everything in its path. Feral, and fiercely driven by the memory of her mother, Hester joins forces with Tom Natsworthy, an outcast from London, along with Anna Fang, a dangerous outlaw with a bounty on her head.


    เรื่องย่อ
    หลายพันปีหลังจากที่อารยธรรมถูกทำลายจากเหตุการณ์ที่ เกิดขึ้นในกลียุค มนุษย์ได้ปรับตัวและได้พัฒนาวิถีชีวิตใหม่ขึ้น ขณะนี้ เมืองเคลื่อนที่ขนาดใหญ่กำลังตระเวณท่องโลก และไล่ล่าเมืองที่เล็กกว่า ทอม นัทส์เวิร์ธธี (โรเบิร์ต ชีแฮน) ชายหนุ่มซึ่งมาจากระดับล่างของเมืองเคลื่อนที่ของลอน ดอน เขาพบว่าตัวเองกำลังต่อสู้เพื่ออยู่รอด หลังจากที่ได้เผชิญกับผู้ลี้ภัยสุดอันตราย เฮสเตอร์ ชอว์ (เฮรา ฮิลมาร์) ทั้งสองคนอยู่ต่างขั้วกัน มากันคนละเส้นทาง แต่กลายมาเป็นพันธมิตรกันได้อย่างไม่น่าเชื่อ และมีเป้าหมายที่จะเปลี่ยนอนาคต



    Video
    ID : 1
    Format : AVC
    Format/Info : Advanced Video Codec
    Format profile : [email protected]
    Format settings, CABAC : Yes
    Format settings, ReFrames : 4 frames
    Codec ID : V_MPEG4/ISO/AVC
    Duration : 2 h 7 min
    Bit rate : 3 820 kb/s
    Width : 1 920 pixels
    Height : 1 080 pixels
    Display aspect ratio : 16:9
    Frame rate mode : Constant
    Frame rate : 23.976 (24000/1001) FPS
    Color space : YUV
    Chroma subsampling : 4:2:0
    Bit depth : 8 bits
    Scan type : Progressive
    Bits/(Pixel*Frame) : 0.077
    Stream size : 3.34 GiB (89%)
    Title : Mortal.Engines.2018.1080p.KORSUB.HDRip.x264.AAC2.0
    Writing library : x264 core 142 r2479 dd79a61
    Encoding settings : cabac=1 / ref=1 / deblock=1:0:0 / analyse=0x3:0x113 / me=hex / subme=2 / psy=1 / psy_rd=1.00:0.00 / mixed_ref=0 / me_range=16 / chroma_me=1 / trellis=0 / 8x8dct=1 / cqm=0 / deadzone=21,11 / fast_pskip=1 / chroma_qp_offset=0 / threads=18 / lookahead_threads=6 / sliced_threads=0 / nr=0 / decimate=1 / interlaced=0 / bluray_compat=0 / constrained_intra=0 / bframes=3 / b_pyramid=2 / b_adapt=1 / b_bias=0 / direct=1 / weightb=1 / open_gop=0 / weightp=1 / keyint=240 / keyint_min=24 / scenecut=40 / intra_refresh=0 / rc_lookahead=10 / rc=abr / mbtree=1 / bitrate=3820 / ratetol=1.0 / qcomp=0.60 / qpmin=0 / qpmax=69 / qpstep=4 / vbv_maxrate=62500 / vbv_bufsize=78125 / nal_hrd=none / filler=0 / ip_ratio=1.40 / aq=1:1.00
    Default : Yes
    Forced : No
    Color range : Limited
    Color primaries : BT.709
    Transfer characteristics : BT.709
    Matrix coefficients : BT.709

    Audio #1
    ID : 2
    Format : AC-3
    Format/Info : Audio Coding 3
    Mode extension : CM (complete main)
    Format settings, Endianness : Big
    Codec ID : A_AC3
    Duration : 2 h 7 min
    Bit rate mode : Constant
    Bit rate : 192 kb/s
    Channel(s) : 2 channels
    Channel positions : Front: L R
    Sampling rate : 48.0 kHz
    Frame rate : 31.250 FPS (1536 spf)
    Compression mode : Lossy
    Stream size : 176 MiB (5%)
    Title : THR_by_TTWW
    Language : Thai
    Default : No
    Forced : No

    Audio #2
    ID : 3
    Format : AAC
    Format/Info : Advanced Audio Codec
    Format profile : LC
    Codec ID : A_AAC
    Duration : 2 h 7 min
    Bit rate : 256 kb/s
    Channel(s) : 2 channels
    Channel positions : Front: L R
    Sampling rate : 48.0 kHz
    Frame rate : 46.875 FPS (1024 spf)
    Compression mode : Lossy
    Delay relative to video : 27 ms
    Stream size : 234 MiB (6%)
    Title : Mortal.Engines.2018.1080p.KORSUB.HDRip.x264.AAC2.0
    Language : English
    Default : Yes
    Forced : No





    Download: cornfile
    http://cornfile.com/jpevgfoe1pd3
    Download: mekafile
    http://www.mekafile.com/dl.php?f=aYe3d4bPrUTl

  2. The Following 5 Users Say Thank You to Duckload.us For This Useful Post:

    amorn wichian (01-25-2019), Jodz14 (01-27-2019), Posedon (01-24-2019), Tellmon (01-24-2019), Wesker_TOT (01-24-2019)

  3. #2
    Senior Member Posedon's Avatar
    Join Date
    Apr 2011
    Posts
    874
    Thanks
    912
    Thanked 0 Times in 0 Posts
    Thank you very much

  4. #3
    Senior Member
    Join Date
    Dec 2013
    Posts
    1,478
    Thanks
    3,431
    Thanked 0 Times in 0 Posts
    ขอบคุณนะครับ...

+ Reply to Thread

Thread Information

Users Browsing this Thread

There are currently 1 users browsing this thread. (0 members and 1 guests)

     

Posting Permissions

  • You may not post new threads
  • You may not post replies
  • You may not post attachments
  • You may not edit your posts