+ Reply to Thread
Results 1 to 5 of 5
  1. #1
    Administrators Duckload.us's Avatar
    Join Date
    Dec 2010
    Posts
    102,779
    Thanks
    9
    Thanked 105,273 Times in 49,993 Posts

    Question [ฝรั่ง]-Spider-Man: Into the Spider-Verse (2018) สไปเดอร์-แมน: ผงาดสู่จักรวาล - [พากย์ไทยโรง+อังกฤษ] [บรรยายไทย(GS Studio)+อังกฤษ] 1080p.BluRay.x264.TrueHD.7.1.Atmos




    SPIDER-MAN: INTO THE SPIDER-VERSE ภาคล่าสุดของโซนี่จะเป็นเรื่องราวของไมลส์ เด็กชายผิวสีที่ค้นพบว่าตัวเองก็เป็นหนึ่งในสไปเดอร์ แมนอีกคน และพบว่าในจักรวาลนี้ไม่ได้มีเพียงแค่เขาเท่านั้นที่ เป็นสไปเดอร์แมน เขาเริ่มออกช่วยเหลือผู้คนรวมถึงคนที่เขารักนั่นคือพ ่อ ซึ่งเราจะได้เห็นสไปเดอร์แมนอีกหลายคน


    Duration : 1 h 56 min
    Overall bit rate mode : Variable
    Overall bit rate : 9 926 kb/s
    Encoded date : UTC 2019-03-11 01:07:15
    Writing application : mkvmerge v31.0.0 ('Dolores In A Shoestand') 64-bit
    Writing library : libebml v1.3.6 + libmatroska v1.4.9
    Cover : Yes
    Attachments : cover

    Video
    ID : 1
    Format : AVC
    Format/Info : Advanced Video Codec
    Format profile : [email protected]
    Format settings : CABAC / 5 Ref Frames
    Format settings, CABAC : Yes
    Format settings, RefFrames : 5 frames
    Codec ID : V_MPEG4/ISO/AVC
    Duration : 1 h 56 min
    Bit rate : 5 186 kb/s
    Width : 1 920 pixels
    Height : 808 pixels
    Display aspect ratio : 2.40:1
    Frame rate mode : Constant
    Frame rate : 23.976 (24000/1001) FPS
    Color space : YUV
    Chroma subsampling : 4:2:0
    Bit depth : 8 bits
    Scan type : Progressive
    Bits/(Pixel*Frame) : 0.139
    Stream size : 4.23 GiB (52%)
    Writing library : x264 core 157 r2935 545de2f
    Encoding settings : cabac=1 / ref=5 / deblock=1:1:1 / analyse=0x3:0x113 / me=umh / subme=8 / psy=1 / psy_rd=0.40:0.00 / mixed_ref=1 / me_range=16 / chroma_me=1 / trellis=1 / 8x8dct=1 / cqm=0 / deadzone=21,11 / fast_pskip=1 / chroma_qp_offset=-2 / threads=25 / lookahead_threads=4 / sliced_threads=0 / nr=0 / decimate=1 / interlaced=0 / bluray_compat=0 / constrained_intra=0 / bframes=5 / b_pyramid=2 / b_adapt=1 / b_bias=0 / direct=3 / weightb=1 / open_gop=0 / weightp=2 / keyint=250 / keyint_min=23 / scenecut=40 / intra_refresh=0 / rc_lookahead=50 / rc=2pass / mbtree=1 / bitrate=5186 / ratetol=1.0 / qcomp=0.60 / qpmin=0 / qpmax=69 / qpstep=4 / cplxblur=20.0 / qblur=0.5 / ip_ratio=1.40 / aq=1:0.60
    Language : English
    Default : Yes
    Forced : No

    Audio 1
    ID : 2
    Format : MLP FBA 16-ch
    Format/Info : Meridian Lossless Packing FBA with 16-channel presentation
    Commercial name : Dolby TrueHD with Dolby Atmos
    Codec ID : A_TRUEHD
    Duration : 1 h 56 min
    Bit rate mode : Variable
    Bit rate : 3 267 kb/s
    Maximum bit rate : 4 935 kb/s
    Channel(s) : 8 channels
    Channel layout : L R C LFE Ls Rs Lb Rb
    Sampling rate : 48.0 kHz
    Frame rate : 1 200.000 FPS (40 SPF)
    Compression mode : Lossless
    Delay relative to video : 8 ms
    Stream size : 2.67 GiB (33%)
    Language : English
    Default : No
    Forced : No
    Number of dynamic objects : 11
    Bed channel count : 1 channel
    Bed channel configuration : LFE

    Audio 2
    ID : 3
    Format : AC-3
    Format/Info : Audio Coding 3
    Commercial name : Dolby Digital
    Codec ID : A_AC3
    Duration : 1 h 56 min
    Bit rate mode : Constant
    Bit rate : 640 kb/s
    Channel(s) : 6 channels
    Channel layout : L R C LFE Ls Rs
    Sampling rate : 48.0 kHz
    Frame rate : 31.250 FPS (1536 SPF)
    Bit depth : 16 bits
    Compression mode : Lossy
    Delay relative to video : 8 ms
    Stream size : 535 MiB (6%)
    Language : English
    Service kind : Complete Main
    Default : Yes
    Forced : No

    Audio 3
    ID : 4
    Format : AC-3
    Format/Info : Audio Coding 3
    Commercial name : Dolby Digital
    Codec ID : A_AC3
    Duration : 1 h 56 min
    Bit rate mode : Constant
    Bit rate : 640 kb/s
    Channel(s) : 6 channels
    Channel layout : L R C LFE Ls Rs
    Sampling rate : 48.0 kHz
    Frame rate : 31.250 FPS (1536 SPF)
    Bit depth : 16 bits
    Compression mode : Lossy
    Delay relative to video : 1 s 250 ms
    Stream size : 535 MiB (6%)
    Language : Thai
    Service kind : Complete Main
    Default : No
    Forced : No

    Text 1
    ID : 5
    Format : ASS
    Codec ID : S_TEXT/ASS
    Codec ID/Info : Advanced Sub Station Alpha
    Duration : 1 h 56 min
    Bit rate : 139 b/s
    Count of elements : 2271
    Compression mode : Lossless
    Stream size : 119 KiB (0%)
    Language : English
    Default : No
    Forced : No

    Text 2
    ID : 6
    Format : VobSub
    Muxing mode : zlib
    Codec ID : S_VOBSUB
    Codec ID/Info : Picture based subtitle format used on DVDs
    Duration : 1 h 56 min
    Bit rate : 10.1 kb/s
    Count of elements : 2271
    Stream size : 8.40 MiB (0%)
    Language : English
    Default : No
    Forced : No

    Text 3
    ID : 7
    Format : UTF-8
    Codec ID : S_TEXT/UTF8
    Codec ID/Info : UTF-8 Plain Text
    Duration : 1 h 55 min
    Bit rate : 55 b/s
    Count of elements : 1540
    Stream size : 46.9 KiB (0%)
    Language : English
    Default : No
    Forced : No

    Text 4
    ID : 8
    Format : PGS
    Muxing mode : zlib
    Codec ID : S_HDMV/PGS
    Codec ID/Info : Picture based subtitle format used on BDs/HD-DVDs
    Duration : 1 h 55 min
    Bit rate : 32.6 kb/s
    Count of elements : 2744
    Stream size : 26.9 MiB (0%)
    Language : English
    Default : No
    Forced : No

    Text 5
    ID : 9
    Format : PGS
    Muxing mode : zlib
    Codec ID : S_HDMV/PGS
    Codec ID/Info : Picture based subtitle format used on BDs/HD-DVDs
    Duration : 1 h 55 min
    Bit rate : 44.2 kb/s
    Count of elements : 3720
    Stream size : 36.5 MiB (0%)
    Language : English
    Default : No
    Forced : No

    Text 6
    ID : 10
    Format : PGS
    Muxing mode : zlib
    Codec ID : S_HDMV/PGS
    Codec ID/Info : Picture based subtitle format used on BDs/HD-DVDs
    Duration : 1 h 56 min
    Bit rate : 41.7 kb/s
    Count of elements : 4542
    Stream size : 34.7 MiB (0%)
    Language : English
    Default : No
    Forced : No

    Text 7
    ID : 11
    Format : PGS
    Muxing mode : zlib
    Codec ID : S_HDMV/PGS
    Codec ID/Info : Picture based subtitle format used on BDs/HD-DVDs
    Duration : 1 h 56 min
    Bit rate : 41.7 kb/s
    Count of elements : 4542
    Stream size : 34.7 MiB (0%)
    Language : English
    Default : No
    Forced : No

    Text 8
    ID : 12
    Format : VobSub
    Muxing mode : zlib
    Codec ID : S_VOBSUB
    Codec ID/Info : Picture based subtitle format used on DVDs
    Duration : 1 h 56 min
    Bit rate : 6 369 b/s
    Count of elements : 1512
    Stream size : 5.31 MiB (0%)
    Language : Thai
    Default : No
    Forced : No

    Text 9
    ID : 13
    Format : UTF-8
    Codec ID : S_TEXT/UTF8
    Codec ID/Info : UTF-8 Plain Text
    Duration : 1 h 56 min
    Bit rate : 114 b/s
    Count of elements : 1512
    Stream size : 98.2 KiB (0%)
    Language : Thai
    Default : No
    Forced : No

    Text 10
    ID : 14
    Format : PGS
    Muxing mode : zlib
    Codec ID : S_HDMV/PGS
    Codec ID/Info : Picture based subtitle format used on BDs/HD-DVDs
    Duration : 1 h 56 min
    Bit rate : 29.2 kb/s
    Count of elements : 3024
    Stream size : 24.3 MiB (0%)
    Language : Thai
    Default : Yes
    Forced : No

    Text 11
    ID : 15
    Format : PGS
    Muxing mode : zlib
    Codec ID : S_HDMV/PGS
    Codec ID/Info : Picture based subtitle format used on BDs/HD-DVDs
    Duration : 1 h 56 min
    Bit rate : 29.2 kb/s
    Count of elements : 3024
    Stream size : 24.3 MiB (0%)
    Language : Thai
    Default : No
    Forced : No




    Download: cornfile
    http://cornfile.com/sv8bzmxhw9of
    Download: mekafile
    http://www.mekafile.com/dl.php?f=v8c215bRpyG5

  2. The Following 2 Users Say Thank You to Duckload.us For This Useful Post:

    PUNKROCK (03-15-2019), Tatum03 (03-13-2019)

  3. #2
    Senior Member
    Join Date
    Oct 2013
    Location
    Thailand
    Posts
    1,084
    Thanks
    956
    Thanked 0 Times in 0 Posts
    ขอบคุณมาก

  4. #3
    Junior Member
    Join Date
    Aug 2018
    Posts
    8
    Thanks
    0
    Thanked 0 Times in 0 Posts
    น่าจะแก้ Timing หมดมั้ง เดี๋ยวผมดูอีกที 555

  5. #4
    Junior Member
    Join Date
    Aug 2018
    Posts
    8
    Thanks
    0
    Thanked 0 Times in 0 Posts
    เฟรมเรทไม่ตรงนะครับ ซับของผม 23.97 แต่หนังมัน 26 เด้อ ไปโหลดอันใหม่มานะ ผมแก้ให้แล้ว

    อยากเปลี่ยนชื่ออ่ะ Admin ถ้าเปลี่ยนได้ เปลี่ยนให้หน่อยสิเปลี่ยนเป็น GSstudio1993

  6. #5
    Senior Member PUNKROCK's Avatar
    Join Date
    Jul 2011
    Posts
    1,244
    Thanks
    1,130
    Thanked 0 Times in 0 Posts
    . โชคดีมีความสุข นะครับพี่
    PUNKROCK NEVERDIE

+ Reply to Thread

Thread Information

Users Browsing this Thread

There are currently 1 users browsing this thread. (0 members and 1 guests)

     

Posting Permissions

  • You may not post new threads
  • You may not post replies
  • You may not post attachments
  • You may not edit your posts