+ Reply to Thread
Results 1 to 2 of 2
  1. #1
    Administrators Duckload.us's Avatar
    Join Date
    Dec 2010
    Posts
    102,779
    Thanks
    9
    Thanked 105,273 Times in 49,993 Posts

    Question [ฝรั่ง]-[* ใหม่!! *] The Lego Movie 2: The Second Part (2019) : เดอะ เลโก้ มูฟวี่ 2 [1080p] [* 1080p.WEBRip.x264.THR2.0 [email protected] *] [พากย์ไทยโรง 2.0 + เสียงอังกฤษ 2.0] [rip from Master]



    ภาพยนตร์ผลงาน ไมค์ มิตเชลล์
    การกลับมาของชิ้นส่วนที่เปลี่ยนไป!
    กลับมาอีกครั้ง กับการรวมตัวของเหล่าฮีโร่แห่งบริคสเบิร์ก ที่มาพร้อมการผจญภัยครั้งใหม่เพื่อช่วยเหลือเมืองอัน เป็นที่รัก!
    &
    ••• [email protected] •••
    พากย์ไทยโรง 2.0 + เสียงอังกฤษ 2.0

    The Lego Movie 2 ภาพยนตร์ที่ได้นักวิจารณ์ต่างชื่นชม ได้รับความนิยมจากบ็อกซ์ออฟฟิศทั่วโลก “The LEGO&174 Movie 2” กลับมาอีกครั้ง กับการรวมตัวของเหล่าฮีโร่แห่งบริคสเบิร์ก ที่มาพร้อมการผจญภัยครั้งใหม่เพื่อช่วยเหลือเมืองอัน เป็นที่รักนี้ หลังผ่านช่วงเวลาอันแสนสงบสุขมาห้าปี ในที่สุดประชาชนชาวบริคเบิร์กก็ต้องพบกับการรุกรานคร ั้งใหม่อันใหญ่โตมโหฬาร จากฝีมือของ LEGO DUPLO&174 ผู้รุกรานจากห้วงอวกาศ พวกมันทำลายทุกสิ่งได้เร็วเสียยิ่งกว่าการสร้างสรรค์ การต่อสู้เพื่อเอาชนะพวกมันและนำสันติสุขคืนสู่จักรว าลเลโก้จะนำพาให้ เอ็มเม็ต, ลูซี่, แบทแมน และผองเพื่อนได้ไปสู่สถานที่ที่ไกลแสนไกลในโลกที่ไม่ เคยมีใครไปถึง ซึ่งนั่นรวมไปถึงห้วงจักรวาลอันแปลกประหลาดที่ทุกสิ่ งเป็นดั่งละครเวที สถานที่เหล่านี้จะทดสอบความกล้าหาญ ความสร้างสรรค์ นำมาซึ่งการพัฒนาฝีมือการสร้างให้ถึงขีดสุด และจะแสดงให้เห็นว่า พวกเขาทุกคน ต่างก็เป็นคนพิเศษขนาดไหน เหล่านักแสดงผู้ให้เสียงตัวละครอันคุ้นหน้าคุ้นตาจาก ภาคแรกกลับมาอีกครั้ง ไม่ว่าจะเป็น คริส แพร็ตต์ ให้เสียง เอ็มเม็ต, อลิซาเบธ แบงส์ ให้เสียง ลูซี่(หรือที่รู้จักกันในชื่อ ไวล์ดสไตล์), วิลล์ อาร์เน็ตต์ ให้เสียง เลโก้แบทแมน, นิก ออฟเฟอร์แมน ให้เสียงเคราเหล็ก, อลิสัน บรี ให้เสียง ยูนิคิตตี้ และ ชาร์ลี เดย์ ให้เสียงเบนนี่ ร่วมด้วย ทิฟฟานี่ แฮดดิช, สเตฟานี่ เบียทริซ และ อาทูโร คาสโตร ซึ่งจะมาให้เสียงตัวละครใหม่อย่า ราชินีวาทีฟรา วานาบี, สวีทเมย์แฮม และไอศกรีมโคน

    Format : Matroska
    Format version : Version 4
    File size : 3.31 GiB
    Duration : 1 h 45 min
    Overall bit rate : 4 496 kb/s
    Movie name : The Lego Movie 2 The Second Part (2019)[email protected]

    Video
    ID : 1
    Format : AVC
    Format/Info : Advanced Video Codec
    Format profile : [email protected]
    Format settings : CABAC / 5 Ref Frames
    Format settings, CABAC : Yes
    Format settings, ReFrames : 5 frames
    Codec ID : V_MPEG4/ISO/AVC
    Duration : 1 h 45 min
    Bit rate : 3 856 kb/s
    Width : 1 920 pixels
    Height : 800 pixels
    Display aspect ratio : 2.40:1
    Frame rate mode : Constant
    Frame rate : 29.970 (30000/1001) FPS
    Color space : YUV
    Chroma subsampling : 4:2:0
    Bit depth : 8 bits
    Scan type : Progressive
    Bits/(Pixel*Frame) : 0.084
    Stream size : 2.83 GiB (86%)
    Title : The Lego Movie 2 The Second Part (2019)[email protected]
    Language : English
    Default : Yes
    Forced : No
    Color range : Limited
    Color primaries : BT.709
    Transfer characteristics : BT.709
    Matrix coefficients : BT.709

    Audio 1
    ID : 2
    Format : AC-3
    Format/Info : Audio Coding 3
    Commercial name : Dolby Digital
    Codec ID : A_AC3
    Duration : 1 h 45 min
    Bit rate mode : Constant
    Bit rate : 384 kb/s
    Channel(s) : 2 channels
    Channel layout : L R
    Sampling rate : 48.0 kHz
    Frame rate : 31.250 FPS (1536 SPF)
    Bit depth : 16 bits
    Compression mode : Lossy
    Stream size : 289 MiB (9%)
    Title : ThaiRong 2.0 @ 384 kb/s By [email protected]
    Language : Thai
    Service kind : Complete Main
    Default : Yes
    Forced : Yes

    Audio 2
    ID : 3
    Format : AAC LC
    Format/Info : Advanced Audio Codec Low Complexity
    Codec ID : A_AAC-2
    Duration : 1 h 45 min
    Bit rate : 256 kb/s
    Channel(s) : 2 channels
    Channel layout : L R
    Sampling rate : 48.0 kHz
    Frame rate : 46.875 FPS (1024 SPF)
    Compression mode : Lossy
    Delay relative to video : 137 ms
    Stream size : 193 MiB (6%)
    Title : Englisg 2.0 @ 256 kb/s
    Language : English
    Default : No
    Forced : No


    [/COLOR]











    Download: cornfile
    http://cornfile.com/ivqdyq69fmaj
    Download: mekafile
    http://www.mekafile.com/dl.php?f=ml5da9bRxk2V

  2. The Following User Says Thank You to Duckload.us For This Useful Post:

    Tellmon (03-15-2019)

  3. #2
    Senior Member
    Join Date
    Jun 2014
    Posts
    534
    Thanks
    0
    Thanked 0 Times in 0 Posts
    ขอบคุณครับ

+ Reply to Thread

Thread Information

Users Browsing this Thread

There are currently 1 users browsing this thread. (0 members and 1 guests)

     

Posting Permissions

  • You may not post new threads
  • You may not post replies
  • You may not post attachments
  • You may not edit your posts