+ Reply to Thread
Results 1 to 4 of 4
  1. #1
    Administrators Duckload.us's Avatar
    Join Date
    Dec 2010
    Posts
    101,830
    Thanks
    9
    Thanked 103,819 Times in 49,470 Posts

    Question [ฝรั่ง]-[* ใหม่!! พากย์ไทย *] Downsizing (2017) : มนุษย์ย่อไซส์ [พากย์ไทย มาสเตอร์ + เสียงอังกฤษ DTS] [บรรยายไทย + อังกฤษ] [ซับไทย From Blu-Ray MASTER +ซับ PGS คมชัด] -Encode.DTS.1080p. [Modified]-[พากย์ไทย บรรยายไทย]



    โลกกำลังเข้าสู่สภาวะประชากรล้นโลก และหนึ่งในทางเลือกที่ดีที่สุดของมนุษย์คือการเข้ากร ะบวนการทางวิทยาศาสตร์ ย่อส่วนให้ตัวเองเล็กลง

    และใช้ชีวิตในสังคมขนาดจิ๋วที่เหมือนโลกจริงๆทุกประก ารเพียงแต่มันถูกย่อส่วนลงมาเท่านั้น

    แมตต์ รับบทเป็น พอล ชายหนุ่มที่ตัดสินใจพร้อมกับภรรยา พาตัวเองย่อส่วนเพื่อไปสู่ชีวิตที่ดีกว่า ซึ่งตัวอย่างแรกของ Downsizing ฉายให้เห็นเพียงด้านดีของการย่อส่วนลง

    แต่ยังไม่ได้บอกว่า หายนะอะไรกำลังจะเกิดขึ้นให้ แมตต์ เดม่อนได้เผชิญกับการแก้ปัญหานี้ เราต้องคอยติดตามในตัวอย่างตัวต่อไป!!!

    Format : Matroska
    Format version : Version 4
    File size : 4.00 GiB
    Duration : 2 h 15 min
    Overall bit rate : 4 232 kb/s
    Movie name : {MINI Super-HQ}[email protected] CtHts
    Encoded date : UTC 2019-04-11 01:39:35
    Writing application : mkvmerge v29.0.0 ('Like It Or Not') 64-bit
    Writing library : libebml v1.3.6 + libmatroska v1.4.9

    Video
    ID : 1
    Format : AVC
    Format/Info : Advanced Video Codec
    Format profile : [email protected]
    Format settings : CABAC / 4 Ref Frames
    Format settings, CABAC : Yes
    Format settings, RefFrames : 4 frames
    Codec ID : V_MPEG4/ISO/AVC
    Duration : 2 h 15 min
    Bit rate : 3 233 kb/s
    Width : 1 920 pixels
    Height : 804 pixels
    Display aspect ratio : 2.40:1
    Frame rate mode : Constant
    Frame rate : 23.976 FPS
    Color space : YUV
    Chroma subsampling : 4:2:0
    Bit depth : 8 bits
    Scan type : Progressive
    Bits/(Pixel*Frame) : 0.087
    Stream size : 3.06 GiB (76%)
    Title : {MINI Super-HQ}[email protected] CtHts
    Writing library : x264 core 130 r2273 b3065e6
    Encoding settings : cabac=1 / ref=3 / deblock=1:0:0 / analyse=0x3:0x113 / me=umh / subme=10 / psy=1 / psy_rd=1.00:0.00 / mixed_ref=1 / me_range=16 / chroma_me=1 / trellis=2 / 8x8dct=1 / cqm=0 / deadzone=21,11 / fast_pskip=1 / chroma_qp_offset=-2 / threads=12 / lookahead_threads=1 / sliced_threads=0 / nr=0 / decimate=1 / interlaced=0 / bluray_compat=0 / constrained_intra=0 / bframes=3 / b_pyramid=2 / b_adapt=1 / b_bias=0 / direct=1 / weightb=1 / open_gop=0 / weightp=2 / keyint=240 / keyint_min=24 / scenecut=40 / intra_refresh=0 / rc_lookahead=40 / rc=2pass / mbtree=1 / bitrate=3233 / ratetol=1.0 / qcomp=0.60 / qpmin=0 / qpmax=69 / qpstep=4 / cplxblur=20.0 / qblur=0.5 / ip_ratio=1.40 / aq=1:1.00
    Language : English
    Default : Yes
    Forced : No
    Color range : Limited
    Color primaries : BT.709
    Transfer characteristics : BT.709
    Matrix coefficients : BT.709

    Audio 1
    ID : 2
    Format : AAC LC
    Format/Info : Advanced Audio Codec Low Complexity
    Codec ID : A_AAC-2
    Duration : 2 h 15 min
    Bit rate : 192 kb/s
    Channel(s) : 2 channels
    Channel layout : L R
    Sampling rate : 48.0 kHz
    Frame rate : 46.875 FPS (1024 SPF)
    Compression mode : Lossy
    Stream size : 186 MiB (5%)
    Language : Thai
    Default : Yes
    Forced : No

    Audio 2
    ID : 3
    Format : DTS
    Format/Info : Digital Theater Systems
    Codec ID : A_DTS
    Duration : 2 h 15 min
    Bit rate mode : Constant
    Bit rate : 755 kb/s
    Channel(s) : 6 channels
    Channel layout : C L R Ls Rs LFE
    Sampling rate : 48.0 kHz
    Frame rate : 93.750 FPS (512 SPF)
    Bit depth : 24 bits
    Compression mode : Lossy
    Stream size : 730 MiB (18%)
    Title : English DTS
    Language : English
    Default : No
    Forced : No

    Text 1
    ID : 4
    Format : VobSub
    Muxing mode : zlib
    Codec ID : S_VOBSUB
    Codec ID/Info : Picture based subtitle format used on DVDs
    Duration : 19 s 975 ms
    Bit rate : 9 242 b/s
    Count of elements : 3
    Stream size : 22.5 KiB (0%)
    Language : Thai
    Default : Yes
    Forced : Yes

    Text 2
    ID : 5
    Format : VobSub
    Muxing mode : zlib
    Codec ID : S_VOBSUB
    Codec ID/Info : Picture based subtitle format used on DVDs
    Duration : 2 h 14 min
    Bit rate : 1 901 b/s
    Count of elements : 1469
    Stream size : 1.83 MiB (0%)
    Title : Thai 480p
    Language : Thai
    Default : No
    Forced : No

    Text 3
    ID : 6
    Format : VobSub
    Muxing mode : zlib
    Codec ID : S_VOBSUB
    Codec ID/Info : Picture based subtitle format used on DVDs
    Duration : 2 h 14 min
    Bit rate : 3 711 b/s
    Count of elements : 1469
    Stream size : 3.57 MiB (0%)
    Title : Thai 720p
    Language : Thai
    Default : No
    Forced : No

    Text 4
    ID : 7
    Format : VobSub
    Muxing mode : zlib
    Codec ID : S_VOBSUB
    Codec ID/Info : Picture based subtitle format used on DVDs
    Duration : 2 h 14 min
    Bit rate : 6 568 b/s
    Count of elements : 1469
    Stream size : 6.33 MiB (0%)
    Title : Thai 1080p
    Language : Thai
    Default : No
    Forced : No

    Text 5
    ID : 8
    Format : VobSub
    Muxing mode : zlib
    Codec ID : S_VOBSUB
    Codec ID/Info : Picture based subtitle format used on DVDs
    Duration : 2 h 14 min
    Bit rate : 6 568 b/s
    Count of elements : 1469
    Stream size : 6.33 MiB (0%)
    Title : Thai 1080p Yellow
    Language : Thai
    Default : No
    Forced : No

    Text 6
    ID : 9
    Format : VobSub
    Muxing mode : zlib
    Codec ID : S_VOBSUB
    Codec ID/Info : Picture based subtitle format used on DVDs
    Duration : 2 h 14 min
    Bit rate : 6 568 b/s
    Count of elements : 1469
    Stream size : 6.33 MiB (0%)
    Title : Thai 1080p Out
    Language : Thai
    Default : No
    Forced : No

    Text 7
    ID : 10
    Format : VobSub
    Muxing mode : zlib
    Codec ID : S_VOBSUB
    Codec ID/Info : Picture based subtitle format used on DVDs
    Duration : 2 h 14 min
    Bit rate : 9 166 b/s
    Count of elements : 1469
    Stream size : 8.83 MiB (0%)
    Title : Thai 1080p BIG
    Language : Thai
    Default : No
    Forced : No

    Text 8
    ID : 11
    Format : PGS
    Muxing mode : zlib
    Codec ID : S_HDMV/PGS
    Codec ID/Info : Picture based subtitle format used on BDs/HD-DVDs
    Duration : 2 h 14 min
    Bit rate : 25.3 kb/s
    Count of elements : 2938
    Stream size : 24.4 MiB (1%)
    Title : Thai PGS BluRay Master
    Language : Thai
    Default : No
    Forced : No

    Text 9
    ID : 12
    Format : PGS
    Muxing mode : zlib
    Codec ID : S_HDMV/PGS
    Codec ID/Info : Picture based subtitle format used on BDs/HD-DVDs
    Duration : 2 h 14 min
    Bit rate : 25.3 kb/s
    Count of elements : 2938
    Stream size : 24.4 MiB (1%)
    Title : Thai PGS Out
    Language : Thai
    Default : No
    Forced : No

    Text 10
    ID : 13
    Format : PGS
    Muxing mode : zlib
    Codec ID : S_HDMV/PGS
    Codec ID/Info : Picture based subtitle format used on BDs/HD-DVDs
    Duration : 2 h 7 min
    Bit rate : 40.8 kb/s
    Count of elements : 3661
    Stream size : 37.1 MiB (1%)
    Title : Eng
    Language : English
    Default : No
    Forced : No

    Menu
    00:00:00.000 : en:Chapter 1
    00:06:13.539 : en:Chapter 2
    00:10:38.346 : en:Chapter 3
    00:16:24.483 : en:Chapter 4
    00:22:14.666 : en:Chapter 5
    00:30:23.905 : en:Chapter 6
    00:38:44.363 : en:Chapter 7
    00:42:38.597 : en:Chapter 8
    00:47:36.687 : en:Chapter 9
    00:55:08.722 : en:Chapter 10
    01:04:35.830 : en:Chapter 11
    01:13:11.595 : en:Chapter 12
    01:21:13.201 : en:Chapter 13
    01:28:00.775 : en:Chapter 14
    01:33:25.308 : en:Chapter 15
    01:41:42.513 : en:Chapter 16
    01:44:11.870 : en:Chapter 17
    01:51:54.374 : en:Chapter 18
    01:58:36.442 : en:Chapter 19
    02:08:58.856 : en:Chapter 20











    Credit : ไฟล์หนังต้นฉบับจากคุณ NongZEZA~ โมเสียงไทยเข้าไป


    Download: cornfile
    http://cornfile.com/hxqakrxszhz6
    Download: mekafile
    http://www.mekafile.com/dl.php?f=7Rabf6bSE2mv

  2. The Following 4 Users Say Thank You to Duckload.us For This Useful Post:

    apichartdear (04-11-2019), noi54 (04-20-2019), Sazabi (04-13-2019), Wesker_TOT (04-13-2019)

  3. #2
    Junior Member
    Join Date
    Aug 2012
    Posts
    27
    Thanks
    1
    Thanked 0 Times in 0 Posts
    cornfile โหลดไม่ได้ครับ

  4. #3
    Senior Member
    Join Date
    Jan 2013
    Posts
    656
    Thanks
    656
    Thanked 0 Times in 0 Posts
    ขอบคุณมากครับ

  5. #4
    Senior Member
    Join Date
    Dec 2013
    Posts
    1,493
    Thanks
    3,446
    Thanked 0 Times in 0 Posts
    ขอบคุณนะครับ...

+ Reply to Thread

Thread Information

Users Browsing this Thread

There are currently 1 users browsing this thread. (0 members and 1 guests)

     

Posting Permissions

  • You may not post new threads
  • You may not post replies
  • You may not post attachments
  • You may not edit your posts