+ Reply to Thread
Results 1 to 3 of 3
  1. #1
    Administrators Duckload.us's Avatar
    Join Date
    Dec 2010
    Posts
    101,830
    Thanks
    9
    Thanked 103,819 Times in 49,470 Posts

    Question [ฝรั่ง]-[* ใหม่!! พากย์ไทย *] Happy Death Day (2017) : สุขสันต์วันตาย • [พากย์ไทย มาสเตอร์ + เสียงอังกฤษ DTS] [บรรยายไทย + อังกฤษ] [ซับไทย From Blu-Ray MASTER +ซับ PGS คมชัด]-Encode.DTS.1080p. [Modified]-[พากย์ไทย บรรยายไทย]



    ผลงานจากบลัมเฮาส์ ผู้สร้าง Split, Get Out และ Paranormal Activity series พบกับ Happy Death Day ทริลเลอร์สุดระทึก
    เรื่องราวของนักศึกษามหาวิทยาลัย ที่เธอตื่นขึ้นมาในวันที่เธอถูกฆาตกรรมซ้ำแล้วซ้ำเล่ าอย่างผิดปกติและน่าสะพรึงกลัว
    จนกระทั่งเธอค้นพบงว่าใครกันแน่ที่เป็นฆาตกร!!!

    Format : Matroska
    Format version : Version 4
    File size : 4.00 GiB
    Duration : 1 h 36 min
    Overall bit rate : 5 953 kb/s
    Movie name : {MINI Super-HQ}_Happy.Death.Day.2017.1080p.BrRip.DTS.x264_Nong [email protected]
    Encoded date : UTC 2019-04-10 10:01:06
    Writing application : mkvmerge v29.0.0 ('Like It Or Not') 64-bit
    Writing library : libebml v1.3.6 + libmatroska v1.4.9

    Video
    ID : 1
    Format : AVC
    Format/Info : Advanced Video Codec
    Format profile : [email protected]
    Format settings : CABAC / 4 Ref Frames
    Format settings, CABAC : Yes
    Format settings, RefFrames : 4 frames
    Codec ID : V_MPEG4/ISO/AVC
    Duration : 1 h 36 min
    Bit rate : 4 959 kb/s
    Width : 1 920 pixels
    Height : 804 pixels
    Display aspect ratio : 2.40:1
    Frame rate mode : Constant
    Frame rate : 23.976 (24000/1001) FPS
    Color space : YUV
    Chroma subsampling : 4:2:0
    Bit depth : 8 bits
    Scan type : Progressive
    Bits/(Pixel*Frame) : 0.134
    Stream size : 3.33 GiB (83%)
    Title : {MINI Super-HQ}_Happy.Death.Day.2017.1080p.BrRip.DTS.x264_Nong [email protected]
    Writing library : x264 core 130 r2273 b3065e6
    Encoding settings : cabac=1 / ref=3 / deblock=1:0:0 / analyse=0x3:0x113 / me=umh / subme=11 / psy=1 / psy_rd=1.00:0.00 / mixed_ref=1 / me_range=48 / chroma_me=1 / trellis=2 / 8x8dct=1 / cqm=0 / deadzone=21,11 / fast_pskip=1 / chroma_qp_offset=-2 / threads=10 / lookahead_threads=1 / sliced_threads=0 / nr=0 / decimate=1 / interlaced=0 / bluray_compat=0 / constrained_intra=0 / bframes=3 / b_pyramid=2 / b_adapt=1 / b_bias=0 / direct=1 / weightb=1 / open_gop=0 / weightp=2 / keyint=240 / keyint_min=24 / scenecut=40 / intra_refresh=0 / rc_lookahead=40 / rc=2pass / mbtree=1 / bitrate=4959 / ratetol=1.0 / qcomp=0.60 / qpmin=0 / qpmax=69 / qpstep=4 / cplxblur=20.0 / qblur=0.5 / ip_ratio=1.40 / aq=1:1.00
    Language : English
    Default : Yes
    Forced : No
    Color range : Limited
    Color primaries : BT.709
    Transfer characteristics : BT.709
    Matrix coefficients : BT.709

    Audio 1
    ID : 2
    Format : AAC LC
    Format/Info : Advanced Audio Codec Low Complexity
    Codec ID : A_AAC-2
    Duration : 1 h 36 min
    Bit rate : 192 kb/s
    Channel(s) : 2 channels
    Channel layout : L R
    Sampling rate : 48.0 kHz
    Frame rate : 46.875 FPS (1024 SPF)
    Compression mode : Lossy
    Stream size : 132 MiB (3%)
    Language : Thai
    Default : Yes
    Forced : No

    Audio 2
    ID : 3
    Format : DTS
    Format/Info : Digital Theater Systems
    Codec ID : A_DTS
    Duration : 1 h 36 min
    Bit rate mode : Constant
    Bit rate : 755 kb/s
    Channel(s) : 6 channels
    Channel layout : C L R Ls Rs LFE
    Sampling rate : 48.0 kHz
    Frame rate : 93.750 FPS (512 SPF)
    Bit depth : 24 bits
    Compression mode : Lossy
    Stream size : 519 MiB (13%)
    Title : English DTS
    Language : English
    Default : No
    Forced : No

    Text 1
    ID : 4
    Format : VobSub
    Muxing mode : zlib
    Codec ID : S_VOBSUB
    Codec ID/Info : Picture based subtitle format used on DVDs
    Duration : 19 s 975 ms
    Bit rate : 9 242 b/s
    Count of elements : 3
    Stream size : 22.5 KiB (0%)
    Language : Thai
    Default : Yes
    Forced : Yes

    Text 2
    ID : 5
    Format : VobSub
    Muxing mode : zlib
    Codec ID : S_VOBSUB
    Codec ID/Info : Picture based subtitle format used on DVDs
    Duration : 1 h 34 min
    Bit rate : 1 457 b/s
    Count of elements : 1162
    Stream size : 1 013 KiB (0%)
    Title : Thai 480p
    Language : Thai
    Default : No
    Forced : No

    Text 3
    ID : 6
    Format : VobSub
    Muxing mode : zlib
    Codec ID : S_VOBSUB
    Codec ID/Info : Picture based subtitle format used on DVDs
    Duration : 1 h 34 min
    Bit rate : 2 839 b/s
    Count of elements : 1162
    Stream size : 1.93 MiB (0%)
    Title : Thai 720p
    Language : Thai
    Default : No
    Forced : No

    Text 4
    ID : 7
    Format : VobSub
    Muxing mode : zlib
    Codec ID : S_VOBSUB
    Codec ID/Info : Picture based subtitle format used on DVDs
    Duration : 1 h 34 min
    Bit rate : 5 049 b/s
    Count of elements : 1162
    Stream size : 3.43 MiB (0%)
    Title : Thai 1080p
    Language : Thai
    Default : No
    Forced : No

    Text 5
    ID : 8
    Format : VobSub
    Muxing mode : zlib
    Codec ID : S_VOBSUB
    Codec ID/Info : Picture based subtitle format used on DVDs
    Duration : 1 h 34 min
    Bit rate : 5 049 b/s
    Count of elements : 1162
    Stream size : 3.43 MiB (0%)
    Title : Thai 1080p Yellow
    Language : Thai
    Default : No
    Forced : No

    Text 6
    ID : 9
    Format : VobSub
    Muxing mode : zlib
    Codec ID : S_VOBSUB
    Codec ID/Info : Picture based subtitle format used on DVDs
    Duration : 1 h 34 min
    Bit rate : 5 049 b/s
    Count of elements : 1162
    Stream size : 3.43 MiB (0%)
    Title : Thai 1080p Out
    Language : Thai
    Default : No
    Forced : No

    Text 7
    ID : 10
    Format : VobSub
    Muxing mode : zlib
    Codec ID : S_VOBSUB
    Codec ID/Info : Picture based subtitle format used on DVDs
    Duration : 1 h 34 min
    Bit rate : 7 009 b/s
    Count of elements : 1162
    Stream size : 4.76 MiB (0%)
    Title : Thai 1080p BIG
    Language : Thai
    Default : No
    Forced : No

    Text 8
    ID : 11
    Format : PGS
    Muxing mode : zlib
    Codec ID : S_HDMV/PGS
    Codec ID/Info : Picture based subtitle format used on BDs/HD-DVDs
    Duration : 1 h 34 min
    Bit rate : 20.8 kb/s
    Count of elements : 2329
    Stream size : 14.1 MiB (0%)
    Title : Thai PGS
    Language : Thai
    Default : No
    Forced : No

    Text 9
    ID : 12
    Format : PGS
    Muxing mode : zlib
    Codec ID : S_HDMV/PGS
    Codec ID/Info : Picture based subtitle format used on BDs/HD-DVDs
    Duration : 1 h 34 min
    Bit rate : 20.7 kb/s
    Count of elements : 2324
    Stream size : 14.1 MiB (0%)
    Title : Thai PGS Out
    Language : Thai
    Default : No
    Forced : No

    Text 10
    ID : 13
    Format : PGS
    Muxing mode : zlib
    Codec ID : S_HDMV/PGS
    Codec ID/Info : Picture based subtitle format used on BDs/HD-DVDs
    Duration : 1 h 29 min
    Bit rate : 40.2 kb/s
    Count of elements : 2894
    Stream size : 25.6 MiB (1%)
    Title : English
    Language : English
    Default : No
    Forced : No

    Menu
    00:00:00.000 : en:Chapter 1
    00:04:54.461 : en:Chapter 2
    00:10:26.000 : en:Chapter 3
    00:14:10.850 : en:Chapter 4
    00:21:46.722 : en:Chapter 5
    00:25:08.799 : en:Chapter 6
    00:29:37.901 : en:Chapter 7
    00:33:09.321 : en:Chapter 8
    00:37:50.185 : en:Chapter 9
    00:41:46.170 : en:Chapter 10
    00:44:54.191 : en:Chapter 11
    00:53:07.976 : en:Chapter 12
    00:57:28.361 : en:Chapter 13
    01:00:18.448 : en:Chapter 14
    01:07:41.557 : en:Chapter 15
    01:12:16.290 : en:Chapter 16
    01:16:35.132 : en:Chapter 17
    01:21:17.080 : en:Chapter 18
    01:27:13.770 : en:Chapter 19
    01:30:24.502 : en:Chapter 20












    Credit : ไฟล์หนังต้นฉบับจากคุณ NongZEZA~ โมเสียงไทยเข้าไป

    Download: cornfile
    http://cornfile.com/fix1obomx3yx
    Download: mekafile
    http://www.mekafile.com/dl.php?f=5Id43abSE2Aa

  2. The Following User Says Thank You to Duckload.us For This Useful Post:

    bigbang06 (04-12-2019)

  3. #2
    Senior Member
    Join Date
    Dec 2013
    Posts
    1,493
    Thanks
    3,446
    Thanked 0 Times in 0 Posts
    สรุปยังโหลดไม่ได้...

  4. #3
    Senior Member
    Join Date
    Dec 2013
    Posts
    1,493
    Thanks
    3,446
    Thanked 0 Times in 0 Posts
    โหลดได้แล้วครับ...

    ขอบคุณนะครับ...

+ Reply to Thread

Thread Information

Users Browsing this Thread

There are currently 1 users browsing this thread. (0 members and 1 guests)

     

Posting Permissions

  • You may not post new threads
  • You may not post replies
  • You may not post attachments
  • You may not edit your posts