+ Reply to Thread
Results 1 to 4 of 4
  1. #1
    Administrators Duckload.us's Avatar
    Join Date
    Dec 2010
    Posts
    105,382
    Thanks
    9
    Thanked 109,051 Times in 51,154 Posts

    Question [ฝรั่ง]-[* ใหม่!!ภาพมาสเตอร์+ เสียงไทยโรง 5.1 *] • Cold Pursuit (2019) : แค้นลั่นนรก • [1080p] • [* BluRay.THR5.1.x264 by [email protected] *] [พากย์ไทยโรง 5.1 + เสียงอังกฤษ DD5.1] [บรรยายอังกฤษ]



    ••• 1080p.BluRay.THR5.1.x264_by [email protected] •••
    พากย์ไทยโรง 5.1 + เสียงอังกฤษ DD5.1 + อังกฤษ

    Cold Pursuit เนลส์เป็นหัวหน้าครอบครัวที่สงบสุขและสันโดษ เขาใช้ชีวิตอย่างเรียบง่ายทำงานขับรถกวาดหิมะในช่วงฤ ดูหนาว แต่แล้วลูกชายของเขากลับถูกฆาตกรรมโดยเจ้าพ่อค้ายาเส พติด เมื่อชีวิตที่ไม่มีอะไรจะเสีย เขาได้เลือกเส้นทางแห่งการชำระบาปและการล้างแค้น

    ขอต้อนรับสู่เมือง “คีโฮ” อากาศอันหนาวเหน็บด้วยอุณหภูมิ -10 องศา ที่นี่เป็นเมืองสกีรีสอร์ท ท่ามกลางหุบเขาร็อกกี้ ที่นี่เป็นเมืองเงียบสงบ ตำรวจท้องที่ไม่คุ้นเคยกับคดีอุกฉกรรจ์ แต่แล้วก็มีคดีการถูกฆาตกรรมลูกชายของคนขับรถกวาดหิม ะอย่าง เนลส์ ค็อกซ์แมน (เลียม นีสัน) ซึ่งเป็นการออกคำสั่งของ ไวกิ้ง (ทอม เบทแมน) พ่อค้ายาเสพติดรายใหญ่ ด้วยความแค้นและอาวุธครบมือ เนลส์ ได้ออกไล่ฆ่าแก๊งอันธพาลทีละคนๆ โดยอาศัยความรู้ ความเข้าใจของการฆ่าคนจากนิยายฆาตกรรม ในขณะที่ศพเริ่มเพิ่มมากขึ้นเรื่อยๆ การกระทำของเนลส์ได้เป็นการจุดชนวนก่อให้เกิดสงครามร ะหว่างแก๊งผู้ค้ายาเสพติดของไวกิ้ง และ ไวท์บูล (ทอม แจ็คสัน) มาเฟียชนเผ่าอินเดียนแดง จากเมืองที่เงียบสงบจะกลายเป็นเมืองที่เดือดระห่ำ เต็มไปด้วยเลือดในชั่วพริบตา!!


    Format : Matroska
    Format version : Version 4
    File size : 2.93 GiB
    Duration : 1 h 59 min
    Overall bit rate : 3 523 kb/s

    Movie name : Cold.Pursuit.2019.1080p.BluRay.THR5.1.x264_by [email protected]

    Video
    ID : 1
    Format : HEVC
    Format/Info : High Efficiency Video Coding
    Format profile : Main [email protected]@Main
    Codec ID : V_MPEGH/ISO/HEVC
    Duration : 1 h 59 min
    Bit rate : 2 753 kb/s

    Width : 1 920 pixels
    Height : 800 pixels
    Display aspect ratio : 2.40:1
    Frame rate mode : Constant
    Frame rate : 23.976 (24000/1001) FPS
    Color space : YUV
    Chroma subsampling : 4:2:0
    Bit depth : 10 bits
    Bits/(Pixel*Frame) : 0.075
    Stream size : 2.29 GiB (78%)
    Title : Cold.Pursuit.2019.1080p.BluRay.THR5.1.x264_by [email protected]

    Language : English
    Default : Yes
    Forced : No

    Audio #1
    ID : 2
    Format : AC-3
    Format/Info : Audio Coding 3
    Commercial name : Dolby Digital
    Codec ID : A_AC3
    Duration : 1 h 59 min
    Bit rate mode : Constant
    Bit rate : 512 kb/s
    Channel(s) : 6 channels
    Channel layout : L R C LFE Ls Rs
    Sampling rate : 48.0 kHz
    Frame rate : 31.250 FPS (1536 SPF)
    Bit depth : 16 bits
    Compression mode : Lossy
    Stream size : 436 MiB (15%)
    Title : ThaiRong 5.1 @ 512 kb/s

    Language : Thai
    Service kind : Complete Main
    Default : Yes
    Forced : No

    Audio #2
    ID : 3
    Format : AAC LC SBR
    Format/Info : Advanced Audio Codec Low Complexity with Spectral Band Replication
    Commercial name : HE-AAC
    Format settings : Explicit
    Codec ID : A_AAC-2
    Duration : 1 h 59 min
    Bit rate : 256 kb/s
    Channel(s) : 6 channels
    Channel layout : C L R Ls Rs LFE
    Sampling rate : 48.0 kHz
    Frame rate : 23.438 FPS (2048 SPF)
    Compression mode : Lossy
    Delay relative to video : 43 ms
    Stream size : 218 MiB (7%)
    Title : English AAC 5.1 @ 256 kb/s
    Language : English
    Default : No
    Forced : No

    Text
    ID : 4
    Format : UTF-8
    Codec ID : S_TEXT/UTF8
    Codec ID/Info : UTF-8 Plain Text
    Duration : 1 h 49 min
    Bit rate : 44 b/s
    Count of elements : 1176
    Stream size : 36.0 KiB (0%)
    Title : Englisg
    Language : English
    Default : Yes
    Forced : No

    Menu
    00:00:00.000 : en:Chapter 1
    00:07:26.946 : en:Chapter 2
    00:13:19.257 : en:Chapter 3
    00:21:35.211 : en:Chapter 4
    00:29:35.649 : en:Chapter 5
    00:38:18.880 : en:Chapter 6
    00:45:11.876 : en:Chapter 7
    00:53:08.310 : en:Chapter 8
    01:01:23.513 : en:Chapter 9
    01:05:46.359 : en:Chapter 10
    01:14:04.857 : en:Chapter 11
    01:22:21.186 : en:Chapter 12
    01:31:40.954 : en:Chapter 13
    01:38:46.879 : en:Chapter 14
    01:45:20.939 : en:Chapter 15
    01:47:43.540 : en:Chapter 16













    Download: cornfile
    http://cornfile.com/ehqg5haw2qqe
    Download: mekafile
    http://www.mekafile.com/dl.php?f=ca8057bU9p0I

  2. The Following 2 Users Say Thank You to Duckload.us For This Useful Post:

    Posedon (05-27-2019), Wesker_TOT (05-19-2019)

  3. #2
    Senior Member
    Join Date
    Dec 2013
    Posts
    1,721
    Thanks
    3,678
    Thanked 0 Times in 0 Posts
    ขอบคุณครับ...

  4. #3
    Senior Member
    Join Date
    Jun 2014
    Posts
    762
    Thanks
    0
    Thanked 0 Times in 0 Posts
    ขอบคุณครับ

  5. #4
    Senior Member Posedon's Avatar
    Join Date
    Apr 2011
    Posts
    898
    Thanks
    937
    Thanked 0 Times in 0 Posts
    Thank you very much

+ Reply to Thread

Thread Information

Users Browsing this Thread

There are currently 1 users browsing this thread. (0 members and 1 guests)

     

Posting Permissions

  • You may not post new threads
  • You may not post replies
  • You may not post attachments
  • You may not edit your posts