+ Reply to Thread
Results 1 to 1 of 1
  1. #1
    Administrators Duckload.us's Avatar
    Join Date
    Dec 2010
    Posts
    103,694
    Thanks
    9
    Thanked 106,644 Times in 50,453 Posts

    Question [ฝรั่ง]-ไฟล์เล็ก [mp4] How to Train Your Dragon 3 The Hidden World (2019) อภินิหารไวกิ้งพิชิตมังกร 3 {เสียงไทยมาสเตอร์}-WEB-DL.H.264.1080p. [From Master]-[พากย์ไทย]



    จุดเริ่มต้นจากมิตรภาพเหลือเชื่อระหว่างไวกิ้งหนุ่มก ับมังกรไนท์ ฟิวรี ที่น่าสะพรึงกลัว ได้กลายเป็นไตรภาคอีพิคที่บอกเล่าเรื่องราวชีวิตของพ วกเขา ในตำนานบทใหม่นี้ ในที่สุด ฮิคคัพและทูธเลสก็จะได้ค้นพบโชคชะตาที่แท้จริงของพวก เขาเสียที นั่นคือการเป็นหัวหน้าหมู่บ้านในฐานะผู้นำของเหล่าเบ ิร์ค เคียงข้างแอสทริด และการเป็นมังกรผู้นำฝูง ในขณะที่ทั้งคู่กำลังจะขึ้นครองอำนาจ ภัยคุกคามที่ร้ายกาจที่สุดเท่าที่พวกเขาเคยเผชิญ รวมถึงการปรากฏตัวของไนท์ ฟิวรีเพศเมีย จะทดสอบสายสัมพันธ์มิตรภาพระหว่างพวกเขาอย่างที่ไม่เ คยปรากฏมาก่อน

    Format : MPEG-4
    Format profile : Base Media / Version 2
    Codec ID : mp42 (isom/mp42)
    File size : 1.11 GiB
    Duration : 1 h 44 min
    Overall bit rate mode : Variable
    Overall bit rate : 1 527 kb/s
    Encoded date : UTC 2019-05-22 06:59:14
    Tagged date : UTC 2019-05-22 06:59:14
    gsst : 0
    gstd : 6246260

    Video
    ID : 1
    Format : AVC
    Format/Info : Advanced Video Codec
    Format profile : [email protected]
    Format settings : CABAC / 2 Ref Frames
    Format settings, CABAC : Yes
    Format settings, ReFrames : 2 frames
    Codec ID : avc1
    Codec ID/Info : Advanced Video Coding
    Duration : 1 h 44 min
    Bit rate : 1 397 kb/s
    Width : 1 920 pixels
    Height : 816 pixels
    Display aspect ratio : 2.35:1
    Frame rate mode : Variable
    Frame rate : 23.976 (24000/1001) FPS
    Minimum frame rate : 23.974 FPS
    Maximum frame rate : 23.981 FPS
    Color space : YUV
    Chroma subsampling : 4:2:0
    Bit depth : 8 bits
    Scan type : Progressive
    Bits/(Pixel*Frame) : 0.037
    Stream size : 1.02 GiB (91%)
    Title : ISO Media file produced by Google Inc. Created on: 05/21/2019.
    Writing library : x264 core 155 r2901 7d0ff22
    Encoded date : UTC 2019-05-22 06:59:14
    Tagged date : UTC 2019-05-22 06:59:14
    Color range : Limited
    Color primaries : BT.709
    Transfer characteristics : BT.709
    Matrix coefficients : BT.709

    Audio
    ID : 2
    Format : AAC
    Format/Info : Advanced Audio Codec
    Format profile : LC
    Codec ID : mp4a-40-2
    Duration : 1 h 44 min
    Bit rate mode : Variable
    Bit rate : 126 kb/s
    Channel(s) : 2 channels
    Channel positions : Front: L R
    Sampling rate : 44.1 kHz
    Frame rate : 43.066 FPS (1024 SPF)
    Compression mode : Lossy
    Stream size : 93.5 MiB (8%)
    Title : ISO Media file produced by Google Inc. Created on: 05/21/2019.
    Encoded date : UTC 2019-05-22 06:59:14
    Tagged date : UTC 2019-05-22 06:59:14



    Download: cornfile
    http://cornfile.com/mnvbeji6xjis
    Download: mekafile
    http://www.mekafile.com/dl.php?f=2yae7fbUjRTK

  2. The Following User Says Thank You to Duckload.us For This Useful Post:

    bigbang06 (05-22-2019)

+ Reply to Thread

Thread Information

Users Browsing this Thread

There are currently 1 users browsing this thread. (0 members and 1 guests)

     

Posting Permissions

  • You may not post new threads
  • You may not post replies
  • You may not post attachments
  • You may not edit your posts