+ Reply to Thread
Results 1 to 1 of 1
  1. #1
    Administrators Duckload.us's Avatar
    Join Date
    Dec 2010
    Posts
    106,079
    Thanks
    9
    Thanked 110,012 Times in 51,410 Posts

    Question (^ฝรั่ง*ใหม่!*พากย์ไทยมาสเตอร์^)-Free Solo (2018) ปีนท้าตาย-{Super HQ}-[1080p.br.x264]•[Sound Eng DTS 5.1/Thai AC3 5.1:MASTER::Modifide]•[SUB:Eng]



    *** Free Solo (2018) ปีนท้าตาย ***

    ภาพยนตร์เชิงสารคดีปี 2018
    รางวัลที่ได้รับ: รางวัลออสการ์ สาขาภาพยนตร์สารคดียอดเยี่ยม, บริติช อะคาเดมี่ ฟิล์ม อวอร์ดส์ สาขาสารคดียอดเยี่ยม
    รางวัลที่ได้รับการเสนอชื่อเข้าชิง: ดีจีเอ อวอร์ดส์ สาขาผู้กำกับภาพยนตร์สารคดียอดเยี่ยม,
    ••• ไฟล์เล็ก 1080p คุณภาพสูง! •••
    เสียงไทย From Master.:FOX


    Free Solo (2018)
    PG-13 | 1h 40min | Documentary, Sport | 14 December 2018 (UK)
    Directors: Jimmy Chin, Elizabeth Chai Vasarhelyi
    Stars: Alex Honnold, Tommy Caldwell, Jimmy Chin

    IMDb: 8.2
    :ระทึกกว่านี้ไม่มีอีกแล้วกับเรื่องราวการปีนผาสูงกว ่ า 900 เมตร (เทียบเท่าตึกไอคอนสยามต่อกันสามตึก!) ของนักปีนเขามืออาชีพอย่าง “อเล็กซ์ ฮอนโนลด์” จากลอสแอนเจลิส แคลิฟอร์เนีย ที่สำคัญการพิชิตยอดเขาสูงครั้งนี้ไม่มีเชือกหรืออุป กรณ์ช่วยใดๆ นอกจากสองมือ สองขา มันสมอง และหัวใจที่ปราศจากความกลัวของเขาเท่านั้น อลิซาเบธ ไช วาซาร์เฮลี และ จิมมี่ ชิน คือคู่รักและคู่หูผู้กำกับของหนังเรื่องนี้ ได้ติดตามเรื่องราวของอเล็กซ์ ฮอนโนลด์ ตั้งแต่การฝึกซ้อมเพื่อการปีนเขา แต่แล้วก็ได้เห็นว่าเกราะป้องกันที่เขาใช้เวลานับทศว รรษสร้างขึ้นมาเริ่มแตกออกเมื่อเขาตกหลุมรัก ทำให้เขาเริ่มวอกแวกจนเปิดช่องทางสู่การบาดเจ็บและถด ถอย ดังนั้น คุณจะได้เห็นด้านของความเป็นมนุษย์ของอเล็กซ์ ฮอนโนลด์ ไปพร้อมๆ กับการท้ามฤตยูของเขาครับ นำไปสู่เรื่องราวของการเอาชนะจิตใจของตัวเอง ไม่เพียงแค่การเอาชนะภารกิจเสี่ยงตายเท่านั้น

    Format : Matroska
    Format version : Version 4
    File size : 3.32 GiB
    Duration : 1 h 40 min
    Overall bit rate : 4 756 kb/s
    Movie name : Free.Solo.2018.1080p.blu.ray.
    Video
    ID : 1
    Format : AVC
    Format/Info : Advanced Video Codec
    Format profile : [email protected]
    Format settings : CABAC / 4 Ref Frames
    Format settings, CABAC : Yes
    Format settings, ReFrames : 4 frames
    Codec ID : V_MPEG4/ISO/AVC
    Duration : 1 h 40 min
    Bit rate : 1 468 kb/s
    Width : 1 920 pixels
    Height : 1 024 pixels
    Display aspect ratio : 1.85:1
    Frame rate mode : Constant
    Frame rate : 23.976 (24000/1001) FPS
    Color space : YUV
    Chroma subsampling : 4:2:0
    Bit depth : 8 bits
    Scan type : Progressive
    Bits/(Pixel*Frame) : 0.031
    Stream size : 1.03 GiB (31%)
    Title : Free.Solo.2018.1080p.blu.ray.-{Super HQ}-26-1.02g
    Writing library : x264 core 155 r2901 7d0ff22
    Language : English
    Default : Yes
    Forced : No
    Color range : Limited
    Color primaries : BT.709
    Transfer characteristics : BT.709
    Matrix coefficients : BT.709

    Audio #1
    ID : 2
    Format : AC-3
    Format/Info : Audio Coding 3
    Commercial name : Dolby Digital
    Codec ID : A_AC3
    Duration : 1 h 40 min
    Bit rate mode : Constant
    Bit rate : 640 kb/s
    Channel(s) : 6 channels
    Channel layout : L R C LFE Ls Rs
    Sampling rate : 44.1 kHz
    Frame rate : 28.711 FPS (1536 SPF)
    Bit depth : 16 bits
    Compression mode : Lossy
    Stream size : 458 MiB (13%)
    Title : AC3-Thai 640k 457m
    Language : Thai
    Service kind : Complete Main
    Default : Yes
    Forced : No

    Audio #2
    ID : 3
    Format : DTS
    Format/Info : Digital Theater Systems
    Codec ID : A_DTS
    Duration : 1 h 40 min
    Bit rate mode : Constant
    Bit rate : 2 646 kb/s
    Channel(s) : 6 channels
    Channel layout : C L R Ls Rs LFE
    Sampling rate : 32.0 kHz
    Frame rate : 31.250 FPS (1024 SPF)
    Bit depth : 16 bits
    Compression mode : Lossy
    Stream size : 1.85 GiB (56%)
    Title : dts 5.1-Eng 1.84g
    Language : English
    Default : No
    Forced : No

    Text #1
    ID : 4
    Format : UTF-8
    Codec ID : S_TEXT/UTF8
    Codec ID/Info : UTF-8 Plain Text
    Duration : 1 h 35 min
    Bit rate : 86 b/s
    Count of elements : 1320
    Stream size : 60.1 KiB (0%)
    Title : SRT
    Language : English
    Default : Yes
    Forced : No

    Text #2
    ID : 5
    Format : UTF-8
    Codec ID : S_TEXT/UTF8
    Codec ID/Info : UTF-8 Plain Text
    Duration : 1 h 39 min
    Bit rate : 87 b/s
    Count of elements : 1365
    Stream size : 63.6 KiB (0%)
    Title : SRT-Hearing Impaired=ผู้บกพร่องทางเสียง
    Language : English
    Default : No
    Forced : No

    Menu
    00:00:00.000 : en:00:00:00.000
    00:07:02.047 : en:00:07:02.047
    00:16:54.222 : en:00:16:54.222
    00:25:50.299 : en:00:25:50.299
    00:33:29.132 : en:00:33:29.132
    00:41:39.205 : en:00:41:39.205
    00:49:36.390 : en:00:49:36.390
    00:58:00.352 : en:00:58:00.352
    01:04:33.912 : en:01:04:33.912
    01:14:52.154 : en:01:14:52.154
    01:22:17.224 : en:01:22:17.224
    01:31:50.839 : en:01:31:50.839





    3.32 GB
    http://cornfile.com/a0rmx13jqhdx
    http://www.mekafile.com/dl.php?f=stff9fbUk1KM
    1.67 GB
    http://cornfile.com/cgc6s36trv5x
    http://www.mekafile.com/dl.php?f=Khb7b6bUk1QL
    7.83 GB
    http://cornfile.com/xibgovmea7xb
    http://www.mekafile.com/dl.php?f=ps2d90bUk1GI

  2. The Following 3 Users Say Thank You to Duckload.us For This Useful Post:

    noi54 (05-22-2019), Sherlock (05-24-2019), smakha (05-24-2019)

+ Reply to Thread

Thread Information

Users Browsing this Thread

There are currently 1 users browsing this thread. (0 members and 1 guests)

     

Posting Permissions

  • You may not post new threads
  • You may not post replies
  • You may not post attachments
  • You may not edit your posts