+ Reply to Thread
Results 1 to 2 of 2
  1. #1
    Administrators Duckload.us's Avatar
    Join Date
    Dec 2010
    Posts
    103,694
    Thanks
    9
    Thanked 106,644 Times in 50,453 Posts

    Question (^ฝรั่ง*ใหม่ร้อนๆ!*พากย์ไทยมาสเตอร์^)-How to Train Your Dragon 3 The Hidden World (2019) อภินิหารไวกิ้งพิชิตมังกร 3-{Super HQ-[1080p.br.x264]•[Sound-Eng DTS TrueHD with Dolby Atmos :7.1 / Thai AC3 :5.1 MASTER:: Modifide]•[SUB:Eng/Thai]




    จุดเริ่มต้นจากมิตรภาพเหลือเชื่อระหว่างไวกิ้งหนุ่มก ับมังกรไนท์ ฟิวรี ที่น่าสะพรึงกลัว ได้กลายเป็นไตรภาคอีพิคที่บอกเล่าเรื่องราวชีวิตของพ วกเขา ในตำนานบทใหม่นี้ ในที่สุด ฮิคคัพและทูธเลสก็จะได้ค้นพบโชคชะตาที่แท้จริงของพวก เขาเสียที นั่นคือการเป็นหัวหน้าหมู่บ้านในฐานะผู้นำของเหล่าเบ ิร์ค เคียงข้างแอสทริด และการเป็นมังกรผู้นำฝูง ในขณะที่ทั้งคู่กำลังจะขึ้นครองอำนาจ ภัยคุกคามที่ร้ายกาจที่สุดเท่าที่พวกเขาเคยเผชิญ รวมถึงการปรากฏตัวของไนท์ ฟิวรีเพศเมีย จะทดสอบสายสัมพันธ์มิตรภาพระหว่างพวกเขาอย่างที่ไม่เ คยปรากฏมาก่อน


    Format : Matroska
    Format version : Version 4
    File size : 4.99 GiB
    Duration : 1 h 44 min
    Overall bit rate mode : Variable
    Overall bit rate : 6 861 kb/s
    Movie name : How.To.Train.Your.Dragon.3.2019.1080p.Blu.ray

    Video
    ID : 1
    Format : AVC
    Format/Info : Advanced Video Codec
    Format profile : [email protected]
    Format settings : CABAC / 4 Ref Frames
    Format settings, CABAC : Yes
    Format settings, ReFrames : 4 frames
    Codec ID : V_MPEG4/ISO/AVC
    Duration : 1 h 44 min
    Bit rate : 2 838 kb/s
    Width : 1 920 pixels
    Height : 816 pixels
    Display aspect ratio : 2.35:1
    Frame rate mode : Constant
    Frame rate : 23.976 (24000/1001) FPS
    Color space : YUV
    Chroma subsampling : 4:2:0
    Bit depth : 8 bits
    Scan type : Progressive
    Bits/(Pixel*Frame) : 0.076
    Stream size : 2.06 GiB (41%)
    Title : How.To.Train.Your.Dragon.3.2019.1080p.Blu.ray-{Super HQ}[email protected] CUP
    Writing library : x264 core 155 r2901 7d0ff22
    Language : English
    Default : Yes
    Forced : No
    Color range : Limited
    Color primaries : BT.709
    Transfer characteristics : BT.709
    Matrix coefficients : BT.709

    Audio #1
    ID : 2
    Format : AC-3
    Format/Info : Audio Coding 3
    Commercial name : Dolby Digital
    Codec ID : A_AC3
    Duration : 1 h 44 min
    Bit rate mode : Constant
    Bit rate : 640 kb/s
    Channel(s) : 6 channels
    Channel layout : L R C LFE Ls Rs
    Sampling rate : 44.1 kHz
    Frame rate : 28.711 FPS (1536 SPF)
    Bit depth : 16 bits
    Compression mode : Lossy
    Stream size : 477 MiB (9%)
    Title : 5.1 AC3-Thai 640k 475m
    Language : Thai
    Service kind : Complete Main
    Default : Yes
    Forced : No

    Audio #2
    ID : 3
    Format : MLP FBA 16-ch
    Format/Info : Meridian Lossless Packing FBA with 16-channel presentation
    Commercial name : Dolby TrueHD with Dolby Atmos
    Codec ID : A_TRUEHD
    Duration : 1 h 44 min
    Bit rate mode : Variable
    Bit rate : 3 312 kb/s
    Maximum bit rate : 5 016 kb/s
    Channel(s) : 8 channels
    Channel layout : L R C LFE Ls Rs Lb Rb
    Sampling rate : 48.0 kHz
    Frame rate : 1 200.000 FPS (40 SPF)
    Compression mode : Lossless
    Stream size : 2.41 GiB (48%)
    Title : Atmos
    Language : English
    Default : No
    Forced : No
    Number of dynamic objects : 11
    Bed channel count : 1 channel
    Bed channel configuration : LFE

    Text #1
    ID : 4
    Format : ASS
    Codec ID : S_TEXT/ASS
    Codec ID/Info : Advanced Sub Station Alpha
    Duration : 1 h 36 min
    Bit rate : 156 b/s
    Count of elements : 1188
    Compression mode : Lossless
    Stream size : 111 KiB (0%)
    Title : ASS
    Language : Thai
    Default : Yes
    Forced : No

    Text #2
    ID : 5
    Format : UTF-8
    Codec ID : S_TEXT/UTF8
    Codec ID/Info : UTF-8 Plain Text
    Duration : 1 h 36 min
    Bit rate : 120 b/s
    Count of elements : 1188
    Stream size : 85.2 KiB (0%)
    Title : SRT
    Language : Thai
    Default : No
    Forced : No

    Text #3
    ID : 6
    Format : UTF-8
    Codec ID : S_TEXT/UTF8
    Codec ID/Info : UTF-8 Plain Text
    Duration : 1 h 32 min
    Bit rate : 46 b/s
    Count of elements : 1100
    Stream size : 31.5 KiB (0%)
    Title : SRT
    Language : English
    Default : No
    Forced : No

    Text #4
    ID : 7
    Format : UTF-8
    Codec ID : S_TEXT/UTF8
    Codec ID/Info : UTF-8 Plain Text
    Duration : 1 h 32 min
    Bit rate : 59 b/s
    Count of elements : 1542
    Stream size : 40.2 KiB (0%)
    Title : SRT--Hearing Impaired=ผู้บกพร่องทางเสียง
    Language : English
    Default : No
    Forced : No

    Menu
    00:00:00.000 : :Chapter 1
    00:05:13.646 : :Chapter 2
    00:10:26.959 : :Chapter 3
    00:14:52.349 : :Chapter 4
    00:20:33.273 : :Chapter 5
    00:24:38.894 : :Chapter 6
    00:28:41.011 : :Chapter 7
    00:31:10.326 : :Chapter 8
    00:37:35.253 : :Chapter 9
    00:44:38.676 : :Chapter 10
    00:47:53.745 : :Chapter 11
    00:53:11.229 : :Chapter 12
    00:57:36.453 : :Chapter 13
    01:01:25.265 : :Chapter 14
    01:08:56.132 : :Chapter 15
    01:14:17.911 : :Chapter 16
    01:19:31.350 : :Chapter 17
    01:23:23.415 : :Chapter 18
    01:28:24.924 : :Chapter 19
    01:33:53.502 : :Chapter 20




    Download: cornfile
    http://cornfile.com/fq3i6m329mu6
    Download: mekafile
    http://www.mekafile.com/dl.php?f=iN1d4ebUoJIM

  2. The Following 2 Users Say Thank You to Duckload.us For This Useful Post:

    bigbang06 (05-24-2019), Tatum03 (05-24-2019)

  3. #2
    Senior Member
    Join Date
    Oct 2013
    Location
    Thailand
    Posts
    1,091
    Thanks
    967
    Thanked 0 Times in 0 Posts
    ขอบคุณมาก

+ Reply to Thread

Thread Information

Users Browsing this Thread

There are currently 1 users browsing this thread. (0 members and 1 guests)

     

Posting Permissions

  • You may not post new threads
  • You may not post replies
  • You may not post attachments
  • You may not edit your posts