เสียงอังกฤษ 5.1 จากบลูเรย์มาสเตอร์ + บรรยายไทยคุณภาพจาก Netflix
คมชัดระดับ 1080p HQ ___ [x264/1080p*HQ/Bluray]



Quote:


12 Monkeys : Season One | 12 ลิงมฤตยูล้างโลก ปี 1

ในปี 2043 หลังจากผู้คนถูกโรคระบาดคร่าชีวิตเหลือเพียงเเค่หยิบ มือ เจมส์ โคล (แอรอน สเตนฟอร์ด)
ได้รับคำขอร้องจากนักวิทยาศาสตร์หญิง แคทเธอรีน่า โจนส์ (บาบาร์ร่า ซูโกว่า) ให้ทำภารกิจกอบกู้โลก
โดยการย้อนเวลากลับไปในปี 2013 เพื่อหยุดยั้งผู้ที่จะปล่อยโรคระบาดทำลายล้างโลก


Quote:



Quote:

General
Complete name : 12.Monkeys.S01E01.Pilot.1080p.BluRay.AC3.x264-ThinmanSB.mkv
Format : Matroska
Format version : Version 4 / Version 2
File size : 1.95 GiB
Duration : 47mn 12s
Overall bit rate : 5 927 Kbps
Movie name : 12.Monkeys.S01E01.Pilot.1080p.BluRay.AC3.x264-ThinmanSB
Encoded date : UTC 2019-05-23 14:41:17
Writing application : mkvmerge v34.0.0 ('Sight and Seen') 64-bit
Writing library : libebml v1.3.7 + libmatroska v1.5.0

Video
ID : 1
Format : AVC
Format/Info : Advanced Video Codec
Format profile : [email protected]
Format settings, CABAC : Yes
Format settings, ReFrames : 4 frames
Codec ID : V_MPEG4/ISO/AVC
Duration : 47mn 12s
Bit rate : 5 250 Kbps
Width : 1 920 pixels
Height : 1 080 pixels
Display aspect ratio : 16:9
Frame rate mode : Constant
Frame rate : 23.976 fps
Color space : YUV
Chroma subsampling : 4:2:0
Bit depth : 8 bits
Scan type : Progressive
Bits/(Pixel*Frame) : 0.106
Stream size : 1.70 GiB (87%)
Title : 12.Monkeys.S01E01.Pilot.1080p.BluRay.AC3.x264-ThinmanSB
Writing library : x264 core 157 r2935 545de2f
Language : English
Default : Yes
Forced : No
Color range : Limited
Color primaries : BT.709
Transfer characteristics : BT.709
Matrix coefficients : BT.709

Audio
ID : 2
Format : AC-3
Format/Info : Audio Coding 3
Mode extension : CM (complete main)
Format settings, Endianness : Big
Codec ID : A_AC3
Duration : 47mn 12s
Bit rate mode : Constant
Bit rate : 640 Kbps
Channel(s) : 6 channels
Channel positions : Front: L C R, Side: L R, LFE
Sampling rate : 48.0 KHz
Bit depth : 16 bits
Compression mode : Lossy
Delay relative to video : -5ms
Stream size : 216 MiB (11%)
Title : [ENGLISH AC-3 [email protected]]
Language : English
Default : Yes
Forced : No

Text #1
ID : 3
Format : VobSub
Muxing mode : zlib
Codec ID : S_VOBSUB
Codec ID/Info : Picture based subtitle format used on DVDs
Title : [THAI IDX FROM NETFLIX]
Language : Thai
Default : Yes
Forced : No

Text #2
ID : 4
Format : PGS
Muxing mode : zlib
Codec ID : S_HDMV/PGS
Codec ID/Info : Picture based subtitle format used on BDs/HD-DVDs
Title : [THAI PGS FROM NETFLIX]
Language : Thai
Default : No
Forced : No

Text #3
ID : 5
Format : PGS
Muxing mode : zlib
Codec ID : S_HDMV/PGS
Codec ID/Info : Picture based subtitle format used on BDs/HD-DVDs
Title : [ENGLISH PGS FROM BLURAYMASTER]
Language : English
Default : No
Forced : No


Quote:






Quote:

บรรยายไทยคุณภาพ จาก Netflix
ภาพบลูเรย์ต้นฉบับ จาก ROVERS



1
http://www.filecondo.com/dl.php?f=Efb4cb1HvXz9
2
http://www.filecondo.com/dl.php?f=x460b21HvXAl
3
http://www.filecondo.com/dl.php?f=18320e1HvXBV
4
http://www.filecondo.com/dl.php?f=E156d81HvXCT
5
http://www.filecondo.com/dl.php?f=wbe3fc1HvXDV
6
http://www.filecondo.com/dl.php?f=Y82db81HvXFP
7
http://www.filecondo.com/dl.php?f=q904211HvXGL
8
http://www.filecondo.com/dl.php?f=d618ec1HvXHQ fix
9
http://www.filecondo.com/dl.php?f=adff6a1HvXIM
10
http://www.filecondo.com/dl.php?f=e9f1661HvXJF
11
http://www.filecondo.com/dl.php?f=334c6d1HvXKD
12
http://www.filecondo.com/dl.php?f=J636a31HvXLC
13
http://www.filecondo.com/dl.php?f=Hca1c51HvXMz