+ Reply to Thread
Results 1 to 2 of 2
  1. #1
    Administrators Duckload.us's Avatar
    Join Date
    Dec 2010
    Posts
    106,925
    Thanks
    9
    Thanked 111,385 Times in 51,815 Posts

    Question [ฝรั่ง]-[* ใหม่ *] Happy Death Day 2U (2019) สุขสันต์วันตาย 2U [* 1080p.BluRay.x264.AC3.THM5.1 *] [พากย์ไทย 2.0 + เสียงอังกฤษ 5.1] [บรรยายอังกฤษ] [เสียงไทย Master From TrueID]





    เรื่องย่อ : เรื่องราวของ ทรี เกลบ์แมน (เจสสิก้า รอธ) ค้นพบว่าการตายซ้ำแล้วซ้ำอีก มันง่ายกว่าอันตรายที่ซุ่มซ่อนตัวอยู่เบื้องหน้ามากน ัก หลังจากที่รอดพ้นจากความตายด้วยฝีมือ ลอรี่ (รูบี้ โมดีน) เพื่อนร่วมห้องของเธอ เมื่อเธอเตะสาวโรคจิตจนตกจากหน้าต่างห้องของชมรมแค็ป ปานู จนในที่สุด วันเกิดที่วนมาไม่รู้จบของทรีก็สิ้นสุดลง และเธอสามารถเริ่มต้นชีวิตใหม่ได้ โดยเธอลั่นปากสาบานว่าจะไม่ทำความผิดพลาดเดิม ๆ อีกอย่างเด็ดขาด ไม่ช้าไม่นาน ทรี ก็บอกลาชีวิตวนลูปแบบไม่รู้จบ และเริ่มต้นความสัมพันธ์ที่ดูน่าจะมีอนาคตกับ คาร์เตอร์ (อิสราเอล บรูซซาร์ด) จนเธอไม่ทันรู้ตัวว่าการไขปริศนาฆาตกรรมสุดประหลาดขอ งเธอนั้น มีผลพวงที่เธอไม่ตั้งใจให้เกิด และมันรุนแรงถึงขนาดที่ส่งผลกระทบไปทั่วเอกภพ!!!



    Video
    ID : 1
    Format : AVC
    Format/Info : Advanced Video Codec
    Format profile : [email protected]
    Format settings, CABAC : Yes
    Format settings, RefFrames : 4 frames
    Codec ID : V_MPEG4/ISO/AVC
    Duration : 1 h 39 min
    Bit rate : 2 500 kb/s
    Width : 1 920 pixels
    Height : 808 pixels
    Display aspect ratio : 2.40:1
    Frame rate mode : Constant
    Frame rate : 23.976 (23976/1000) FPS
    Color space : YUV
    Chroma subsampling : 4:2:0
    Bit depth : 8 bits
    Scan type : Progressive
    Bits/(Pixel*Frame) : 0.067
    Stream size : 1.74 GiB (71%)
    Title : Happy.Death.Day.2U.2019.1080p.BluRay.x264.AC3.THM2 .0_HeRMineZ
    Writing library : x264 core 152 r2851M ba24899
    Encoding settings : cabac=1 / ref=4 / deblock=1:-1:-1 / analyse=0x3:0x113 / me=umh / subme=9 / psy=1 / psy_rd=1.00:0.15 / mixed_ref=1 / me_range=24 / chroma_me=1 / trellis=2 / 8x8dct=1 / cqm=0 / deadzone=21,11 / fast_pskip=1 / chroma_qp_offset=-3 / threads=32 / lookahead_threads=4 / sliced_threads=0 / nr=0 / decimate=1 / interlaced=0 / bluray_compat=0 / constrained_intra=0 / bframes=3 / b_pyramid=2 / b_adapt=2 / b_bias=0 / direct=3 / weightb=1 / open_gop=0 / weightp=2 / keyint=250 / keyint_min=25 / scenecut=40 / intra_refresh=0 / rc_lookahead=50 / rc=2pass / mbtree=1 / bitrate=2500 / ratetol=1.0 / qcomp=0.60 / qpmin=0 / qpmax=69 / qpstep=4 / cplxblur=20.0 / qblur=0.5 / vbv_maxrate=31250 / vbv_bufsize=31250 / nal_hrd=none / filler=0 / ip_ratio=1.40 / aq=3:1.00
    Default : Yes
    Forced : No

    Audio #1
    ID : 2
    Format : AC-3
    Format/Info : Audio Coding 3
    Format settings, Endianness : Big
    Codec ID : A_AC3
    Duration : 1 h 39 min
    Bit rate mode : Constant
    Bit rate : 384 kb/s
    Channel(s) : 2 channels
    Channel positions : Front: L R
    Sampling rate : 48.0 kHz
    Frame rate : 31.250 FPS (1536 SPF)
    Bit depth : 16 bits
    Compression mode : Lossy
    Delay relative to video : 24 ms
    Stream size : 274 MiB (11%)
    Title : Thai Master 2.0 From TrueID @384 Kbps
    Language : Thai
    Service kind : Complete Main
    Default : Yes
    Forced : No

    Audio #2
    ID : 3
    Format : AC-3
    Format/Info : Audio Coding 3
    Format settings, Endianness : Big
    Codec ID : A_AC3
    Duration : 1 h 39 min
    Bit rate mode : Constant
    Bit rate : 640 kb/s
    Channel(s) : 6 channels
    Channel positions : Front: L C R, Side: L R, LFE
    Sampling rate : 48.0 kHz
    Frame rate : 31.250 FPS (1536 SPF)
    Bit depth : 16 bits
    Compression mode : Lossy
    Stream size : 457 MiB (18%)
    Title : English 5.1 @640 Kbps
    Language : English
    Service kind : Complete Main
    Default : No
    Forced : No

    Text
    ID : 4
    Format : VobSub
    Muxing mode : zlib
    Codec ID : S_VOBSUB
    Codec ID/Info : Picture based subtitle format used on DVDs
    Duration : 1 h 34 min
    Bit rate : 12.8 kb/s
    Count of elements : 1596
    Stream size : 8.64 MiB (0%)
    Title : English
    Language : English
    Default : Yes
    Forced : No
















    Download: cornfile
    http://cornfile.com/rpb0kcye8k6u
    Download: mekafile
    http://www.mekafile.com/dl.php?f=uma46bbViDz3

  2. The Following User Says Thank You to Duckload.us For This Useful Post:

    bigbang06 (06-16-2019)

  3. #2
    Senior Member
    Join Date
    Jun 2014
    Posts
    992
    Thanks
    0
    Thanked 0 Times in 0 Posts
    ขอบคุณครับ

+ Reply to Thread

Thread Information

Users Browsing this Thread

There are currently 1 users browsing this thread. (0 members and 1 guests)

     

Posting Permissions

  • You may not post new threads
  • You may not post replies
  • You may not post attachments
  • You may not edit your posts