+ Reply to Thread
Results 1 to 2 of 2
  1. #1
    Administrators Duckload.us's Avatar
    Join Date
    Dec 2010
    Posts
    104,358
    Thanks
    9
    Thanked 107,561 Times in 50,732 Posts

    Angry (^ฝรั่ง*ใหม่!*พากย์ไทยโรง^)-Polaroid [2019] โพลารอยด์ ถ่ายติดตาย-[Super HQ]-[1080p.BluRay x264]•[Sound Eng DTS 5.1:MASTER::Modifide+Thai [Roang] AC3 5.1]•[SUB:Eng*SRT*]




    เรื่องย่อ : คุณกล้าถ่ายรูปหรือเปล่าหากว่าทุกคนในรูปจะต้องตาย! เบิร์ด ฟิตเชอร์ (แคทรีน เพรสคอตต์) ได้พบกับกล้องโพลารอยด์ตัวหนึ่งในร้านขายของเก่า แต่แล้วเธอกลับพบว่าผู้ที่ถูกถ่ายด้วยกล้องตัวนี้ล้ว นแต่จะต้องตายอย่างน่าสยดสยอง เธอและเพื่อน ๆ จึงต้องร่วมมือกันเพื่อหาทางออกจากสถานการณ์นี้ก่อนท ี่พวกเธอทุกคนจะถูกมันฆ่า!!!

    Format : Matroska
    Format version : Version 4
    File size : 3.77 GiB
    Duration : 1 h 27 min
    Overall bit rate : 6 127 kb/s
    Movie name : Polaroid.2019.1080p.BluRay.x264-[Super HQ]

    Video
    ID : 1
    Format : MPEG-4 Visual
    Format profile : [email protected]
    Format settings, BVOP : No
    Format settings, QPel : No
    Format settings, GMC : No warppoints
    Format settings, Matrix : Default (H.263)
    Codec ID : V_MS/VFW/FOURCC / DIVX
    Codec ID/Info : Project Mayo
    Codec ID/Hint : DivX 4
    Duration : 1 h 27 min
    Bit rate : 4 492 kb/s
    Width : 1 920 pixels
    Height : 800 pixels
    Display aspect ratio : 2.40:1
    Frame rate mode : Constant
    Frame rate : 24.000 FPS
    Color space : YUV
    Chroma subsampling : 4:2:0
    Bit depth : 8 bits
    Scan type : Progressive
    Compression mode : Lossy
    Bits/(Pixel*Frame) : 0.122
    Stream size : 2.76 GiB (73%)
    Writing library : Lavc58.18.100
    Language : English
    Default : Yes
    Forced : No

    Audio #1
    ID : 2
    Format : AC-3
    Format/Info : Audio Coding 3
    Commercial name : Dolby Digital
    Codec ID : A_AC3
    Duration : 1 h 27 min
    Bit rate mode : Constant
    Bit rate : 640 kb/s
    Channel(s) : 6 channels
    Channel layout : L R C LFE Ls Rs
    Sampling rate : 44.1 kHz
    Frame rate : 28.711 FPS (1536 SPF)
    Bit depth : 16 bits
    Compression mode : Lossy
    Stream size : 403 MiB (10%)
    Title : 5.1 AC3-Thai 640k 402m
    Language : Thai
    Service kind : Complete Main
    Default : Yes
    Forced : No

    Audio #2
    ID : 3
    Format : DTS
    Format/Info : Digital Theater Systems
    Codec ID : A_DTS
    Duration : 1 h 27 min
    Bit rate mode : Constant
    Bit rate : 992 kb/s
    Channel(s) : 6 channels
    Channel layout : C L R Ls Rs LFE
    Sampling rate : 12.0 kHz
    Frame rate : 11.719 FPS (1024 SPF)
    Bit depth : 16 bits
    Compression mode : Lossy
    Stream size : 624 MiB (16%)
    Title : dts 5.1-Eng 12000-624m
    Language : English
    Default : No
    Forced : No

    Text
    ID : 4
    Format : UTF-8
    Codec ID : S_TEXT/UTF8
    Codec ID/Info : UTF-8 Plain Text
    Duration : 1 h 22 min
    Bit rate : 35 b/s
    Count of elements : 687
    Stream size : 21.5 KiB (0%)
    Title : SRT
    Language : English
    Default : Yes
    Forced : No






    Download: cornfile
    http://cornfile.com/wd69ohz6h2dr
    Download: mekafile
    meka อัพไม่ได้ครับ หนังค่าย M

  2. The Following User Says Thank You to Duckload.us For This Useful Post:

    Wesker_TOT (06-17-2019)

  3. #2
    Senior Member
    Join Date
    Dec 2013
    Posts
    1,664
    Thanks
    3,620
    Thanked 0 Times in 0 Posts
    ขอบคุณนะครับ...

+ Reply to Thread

Thread Information

Users Browsing this Thread

There are currently 1 users browsing this thread. (0 members and 1 guests)

     

Posting Permissions

  • You may not post new threads
  • You may not post replies
  • You may not post attachments
  • You may not edit your posts