+ Reply to Thread
Results 1 to 2 of 2
  1. #1
    Administrators Duckload.us's Avatar
    Join Date
    Dec 2010
    Posts
    107,108
    Thanks
    9
    Thanked 111,559 Times in 51,851 Posts

    Question [ฝรั่ง]-[ภาพ MASTER] Hellboy.2019.1080p.AMZN.WEB-DL.DDP5.1.H.264 [SOUNDTRACK + พากย์ไทยโรง + บรรยายอังกฤษ]-WEB-DL.AC-3.1080p. [Modified]-[พากย์ไทยโรง]




    เรื่องย่อ : เรื่องราวของ อสูรสีแดงเพลิงจากขุมนรก ผู้มีชาติกำเนิดเป็นปริศนาที่มาพร้อมกับแขนขวาอันทรง พลัง และต้องต่อสู้ในสงครามระหว่างมนุษย์และสิ่งที่อยู่เห นือธรรมชาติ รวมถึงการเผชิญหน้ากับแม่มดสุดแกร่งที่มาพร้อมกับควา มแค้นเต็มอก!!!

    Format : Matroska
    Format version : Version 4 / Version 2
    File size : 7.15 GiB
    Duration : 2 h 1 min
    Overall bit rate : 8 450 kb/s
    Encoded date : UTC 2019-07-11 07:26:03
    Writing application : mkvmerge v31.0.0 ('Dolores In A Shoestand') 64-bit
    Writing library : libebml v1.3.6 + libmatroska v1.4.9

    Video
    ID : 1
    Format : AVC
    Format/Info : Advanced Video Codec
    Format profile : [email protected]
    Format settings : CABAC / 4 Ref Frames
    Format settings, CABAC : Yes
    Format settings, ReFrames : 4 frames
    Codec ID : V_MPEG4/ISO/AVC
    Duration : 2 h 1 min
    Bit rate mode : Constant
    Bit rate : 7 492 kb/s
    Nominal bit rate : 10 000 kb/s
    Width : 1 920 pixels
    Height : 800 pixels
    Display aspect ratio : 2.40:1
    Frame rate mode : Constant
    Frame rate : 23.976 (24000/1001) FPS
    Color space : YUV
    Chroma subsampling : 4:2:0
    Bit depth : 8 bits
    Scan type : Progressive
    Bits/(Pixel*Frame) : 0.203
    Stream size : 6.33 GiB (89%)
    Default : Yes
    Forced : No
    Color range : Limited
    Color primaries : BT.709
    Transfer characteristics : BT.709
    Matrix coefficients : BT.709

    Audio #1
    ID : 2
    Format : E-AC-3
    Format/Info : Enhanced Audio Coding 3
    Codec ID : A_EAC3
    Duration : 2 h 1 min
    Bit rate mode : Constant
    Bit rate : 640 kb/s
    Channel(s) : 6 channels
    Channel positions : Front: L C R, Side: L R, LFE
    Sampling rate : 48.0 kHz
    Frame rate : 187.500 FPS (256 SPF)
    Compression mode : Lossy
    Stream size : 554 MiB (8%)
    Language : English
    Service kind : Complete Main
    Default : Yes
    Forced : No

    Audio #2
    ID : 5
    Format : AC-3
    Format/Info : Audio Coding 3
    Codec ID : A_AC3
    Duration : 2 h 1 min
    Bit rate mode : Constant
    Bit rate : 320 kb/s
    Channel(s) : 6 channels
    Channel positions : Front: L C R, Side: L R, LFE
    Sampling rate : 48.0 kHz
    Frame rate : 31.250 FPS (1536 SPF)
    Bit depth : 16 bits
    Compression mode : Lossy
    Stream size : 277 MiB (4%)
    Service kind : Complete Main
    Default : No
    Forced : No

    Text #1
    ID : 3
    Format : UTF-8
    Codec ID : S_TEXT/UTF8
    Codec ID/Info : UTF-8 Plain Text
    Duration : 2 h 0 min
    Bit rate : 53 b/s
    Count of elements : 1528
    Stream size : 46.7 KiB (0%)
    Language : English
    Default : No
    Forced : No

    Text #2
    ID : 4
    Format : UTF-8
    Codec ID : S_TEXT/UTF8
    Codec ID/Info : UTF-8 Plain Text
    Duration : 2 h 0 min
    Bit rate : 59 b/s
    Count of elements : 1899
    Stream size : 52.9 KiB (0%)
    Title : SDH
    Language : English
    Default : No
    Forced : No





    Download: cornfile
    http://cornfile.com/sii8epkkb1sk
    Download: mekafile
    http://www.mekafile.com/dl.php?f=nc3605bWmN3M

  2. #2
    Senior Member
    Join Date
    Jun 2014
    Posts
    1,027
    Thanks
    0
    Thanked 0 Times in 0 Posts
    ขอบคุณครับ

+ Reply to Thread

Thread Information

Users Browsing this Thread

There are currently 1 users browsing this thread. (0 members and 1 guests)

     

Posting Permissions

  • You may not post new threads
  • You may not post replies
  • You may not post attachments
  • You may not edit your posts