+ Reply to Thread
Results 1 to 2 of 2
  1. #1
    Administrators Duckload.us's Avatar
    Join Date
    Dec 2010
    Posts
    105,316
    Thanks
    9
    Thanked 108,924 Times in 51,129 Posts

    Question [ฝรั่ง]-[* ใหม่*][ Mini-HD 1080p ] Book Club (2018) ก๊วนลับฉบับสาวแซ่บ [พากย์ไทย 5.1 + English 5.1]• -Blu-ray.1080p. [Modified]-[พากย์ไทย]



    ไดแอน (ไดแอน คีตัน) เพิ่งจะได้กลายเป็นแม่หม้ายหลังจากการแต่งงานมากว่า 40 ปี วิเวียน (เจน ฟอนด้า) ที่ยังคงลั้ลลาอยู่กับชีวิตโสด ชารอน (แคนดิซ เบอร์เกน) ผู้ที่ยังคงทำใจกับการหย่าร้างที่เกิดขึ้นเมื่อสิบปี ก่อน และ แคโรล (แมรี สตีนเบอร์เกน) ที่ชีวิตคู่ไม่อยู่กับร่องกับรอยมากว่า 35 ปี

    เพื่อนซี้ 4 สาว ที่ได้เปิดชมรมอ่านหนังสือ เพื่อแบ่งปันเรื่องราวและประสบการณ์การอ่าน ได้พบกับหนังสือที่จะมาเปลี่ยนแปลงชีวิตของพวกเธอเมื ่อได้อ่านหนังสือดังกระฉ่อนโลกอย่าง ฟิฟตี้ เชดส์ ออฟ เกร

    Format : Matroska
    Format version : Version 4
    File size : 4.71 GiB
    Duration : 1 h 43 min
    Overall bit rate : 6 502 kb/s
    Movie name : Book.Club.2018.1080p.BluRay.x264-[Super HQ][email protected] CUP
    Video
    ID : 1
    Format : AVC
    Format/Info : Advanced Video Codec
    Format profile : [email protected]
    Format settings : CABAC / 1 Ref Frames
    Format settings, CABAC : Yes
    Format settings, Reference : 1 frame
    Format settings, GOP : M=1, N=25
    Codec ID : V_MPEG4/ISO/AVC
    Duration : 1 h 43 min
    Bit rate mode : Constant
    Bit rate : 5 000 kb/s
    Width : 1 920 pixels
    Height : 800 pixels
    Display aspect ratio : 2.40:1
    Frame rate mode : Constant
    Frame rate : 29.970 (30000/1001) FPS
    Color space : YUV
    Chroma subsampling : 4:2:0
    Bit depth : 8 bits
    Scan type : Progressive
    Bits/(Pixel*Frame) : 0.109
    Stream size : 3.62 GiB (77%)
    Title : Book.Club.2018.1080p.BluRay.x264-[Super HQ][email protected] CUP
    Language : English
    Default : Yes
    Forced : No

    Audio #1
    ID : 2
    Format : AC-3
    Format/Info : Audio Coding 3
    Commercial name : Dolby Digital
    Codec ID : A_AC3
    Duration : 1 h 43 min
    Bit rate mode : Constant
    Bit rate : 640 kb/s
    Channel(s) : 6 channels
    Channel layout : L R C LFE Ls Rs
    Sampling rate : 44.1 kHz
    Frame rate : 28.711 FPS (1536 SPF)
    Bit depth : 16 bits
    Compression mode : Lossy
    Stream size : 475 MiB (10%)
    Title : 5.1 AC3 Thai 640k 474m
    Language : Thai
    Service kind : Complete Main
    Default : Yes
    Forced : No

    Audio #2
    ID : 3
    Format : AAC LC
    Format/Info : Advanced Audio Codec Low Complexity
    Codec ID : A_AAC-2
    Duration : 1 h 43 min
    Bit rate : 96.0 kb/s
    Channel(s) : 2 channels
    Channel layout : L R
    Sampling rate : 44.1 kHz
    Frame rate : 43.066 FPS (1024 SPF)
    Compression mode : Lossy
    Stream size : 71.2 MiB (1%)
    Title : AAC 2.0
    Language : Thai
    Default : No
    Forced : No

    Audio #3
    ID : 4
    Format : AC-3
    Format/Info : Audio Coding 3
    Commercial name : Dolby Digital
    Codec ID : A_AC3
    Duration : 1 h 43 min
    Bit rate mode : Constant
    Bit rate : 640 kb/s
    Channel(s) : 6 channels
    Channel layout : L R C LFE Ls Rs
    Sampling rate : 44.1 kHz
    Frame rate : 28.711 FPS (1536 SPF)
    Bit depth : 16 bits
    Compression mode : Lossy
    Stream size : 475 MiB (10%)
    Title : 5.1 AC3 Eng 640k 474m
    Language : English
    Service kind : Complete Main
    Default : No
    Forced : No

    Audio #4
    ID : 5
    Format : AAC LC
    Format/Info : Advanced Audio Codec Low Complexity
    Codec ID : A_AAC-2
    Duration : 1 h 43 min
    Bit rate : 125 kb/s
    Channel(s) : 2 channels
    Channel layout : L R
    Sampling rate : 48.0 kHz
    Frame rate : 46.875 FPS (1024 SPF)
    Compression mode : Lossy
    Stream size : 93.1 MiB (2%)
    Title : AAC 2.0
    Language : English
    Default : No
    Forced : No

    Text #1
    ID : 6
    Format : UTF-8
    Codec ID : S_TEXT/UTF8
    Codec ID/Info : UTF-8 Plain Text
    Duration : 1 h 36 min
    Bit rate : 82 b/s
    Count of elements : 1835
    Stream size : 58.6 KiB (0%)
    Title : SRT
    Language : English
    Default : Yes
    Forced : No

    Text #2
    ID : 7
    Format : UTF-8
    Codec ID : S_TEXT/UTF8
    Codec ID/Info : UTF-8 Plain Text
    Duration : 1 h 36 min
    Bit rate : 113 b/s
    Count of elements : 1970
    Stream size : 80.3 KiB (0%)
    Title : SRT-Hearing Impaired=ผู้บกพร่องทางเสียง
    Language : English
    Default : No
    Forced : No






    Download: cornfile
    http://cornfile.com/0uj2h6f5dxsz
    Download: mekafile
    http://www.mekafile.com/dl.php?f=3O06c2bWEB0j

  2. The Following 2 Users Say Thank You to Duckload.us For This Useful Post:

    kappa (07-18-2019), noi54 (07-20-2019)

  3. #2
    Senior Member
    Join Date
    Jun 2014
    Posts
    759
    Thanks
    0
    Thanked 0 Times in 0 Posts
    ขอบคุณครับ

+ Reply to Thread

Thread Information

Users Browsing this Thread

There are currently 1 users browsing this thread. (0 members and 1 guests)

     

Posting Permissions

  • You may not post new threads
  • You may not post replies
  • You may not post attachments
  • You may not edit your posts