+ Reply to Thread
Results 1 to 4 of 4
  1. #1
    Administrators Duckload.us's Avatar
    Join Date
    Dec 2010
    Posts
    105,520
    Thanks
    9
    Thanked 109,198 Times in 51,203 Posts

    Question [ฝรั่ง]-[* ใหม่ เสียงไทยมาสเตอร์ *] Victoria & Abdul (2017) ราชินีและคนสนิท [* 1080p.BluRay.x264.AC3.THM2.0 *] [พากย์ไทยมาสเตอร์ 2.0 + เสียงอังกฤษ 5.1] [บรรยายไทย + อังกฤษ] [ซับไทย From BluRay Master]




    เรื่องย่อ : อับดุล คาริม (อาลี ฟาซาล) เสมียนหนุ่ม เดินทางจากอินเดียมาเข้าร่วมในงานพิธีฉลองการครองราช ย์ครบ 50 ปีของสมเด็จพระราชินีนาถวิกตอเรียแห่งสหราชอาณาจักร (จูดี้ เดนช์) และกลายมาเป็นสหายที่พระองค์ทรงพอพระราชหฤทัยแม้ว่าพ ระองค์ทรงเผชิญความกดดันจากการครองราชย์อันยาวนาน แต่มิตรภาพของทั้งคู่เปี่ยมด้วยความศรัทธาและภักดี และได้เพิ่มพูนมากขึ้น สมเด็จพระราชินีทรงเห็นโลกกำลังเปลี่ยนแปลงไปผ่านมุม มองใหม่ๆ และทรงกลับมามีความเบิกบานพระราชหฤทัยอีกครั้ง!!!


    Video
    ID : 1
    Format : AVC
    Format/Info : Advanced Video Codec
    Format profile : [email protected]
    Format settings, CABAC : Yes
    Format settings, RefFrames : 4 frames
    Codec ID : V_MPEG4/ISO/AVC
    Duration : 1 h 51 min
    Bit rate : 2 500 kb/s
    Width : 1 920 pixels
    Height : 808 pixels
    Display aspect ratio : 2.40:1
    Frame rate mode : Constant
    Frame rate : 23.976 (24000/1001) FPS
    Original frame rate : 23.976 (23976/1000) FPS
    Color space : YUV
    Chroma subsampling : 4:2:0
    Bit depth : 8 bits
    Scan type : Progressive
    Bits/(Pixel*Frame) : 0.067
    Stream size : 1.94 GiB (79%)
    Title : Victoria.and.Abdul.2017.1080p.BluRay.x264.AC3.THM2 .0_HeRMineZ
    Writing library : x264 core 152 r2851M ba24899
    Encoding settings : cabac=1 / ref=4 / deblock=1:-1:-1 / analyse=0x3:0x113 / me=umh / subme=9 / psy=1 / psy_rd=1.00:0.15 / mixed_ref=1 / me_range=24 / chroma_me=1 / trellis=2 / 8x8dct=1 / cqm=0 / deadzone=21,11 / fast_pskip=1 / chroma_qp_offset=-3 / threads=32 / lookahead_threads=4 / sliced_threads=0 / nr=0 / decimate=1 / interlaced=0 / bluray_compat=0 / constrained_intra=0 / bframes=3 / b_pyramid=2 / b_adapt=2 / b_bias=0 / direct=3 / weightb=1 / open_gop=0 / weightp=2 / keyint=250 / keyint_min=25 / scenecut=40 / intra_refresh=0 / rc_lookahead=50 / rc=2pass / mbtree=1 / bitrate=2500 / ratetol=1.0 / qcomp=0.60 / qpmin=0 / qpmax=69 / qpstep=4 / cplxblur=20.0 / qblur=0.5 / vbv_maxrate=31250 / vbv_bufsize=31250 / nal_hrd=none / filler=0 / ip_ratio=1.40 / aq=3:1.00
    Default : Yes
    Forced : No

    Audio #1
    ID : 2
    Format : AC-3
    Format/Info : Audio Coding 3
    Format settings, Endianness : Big
    Codec ID : A_AC3
    Duration : 1 h 51 min
    Bit rate mode : Constant
    Bit rate : 192 kb/s
    Channel(s) : 2 channels
    Channel positions : Front: L R
    Sampling rate : 48.0 kHz
    Frame rate : 31.250 FPS (1536 SPF)
    Bit depth : 16 bits
    Compression mode : Lossy
    Stream size : 153 MiB (6%)
    Title : Thai Master 2.0 @192 Kbps
    Language : Thai
    Service kind : Complete Main
    Default : Yes
    Forced : No

    Audio #2
    ID : 3
    Format : AC-3
    Format/Info : Audio Coding 3
    Format settings, Endianness : Big
    Codec ID : A_AC3
    Duration : 1 h 51 min
    Bit rate mode : Constant
    Bit rate : 448 kb/s
    Channel(s) : 6 channels
    Channel positions : Front: L C R, Side: L R, LFE
    Sampling rate : 48.0 kHz
    Frame rate : 31.250 FPS (1536 SPF)
    Bit depth : 16 bits
    Compression mode : Lossy
    Stream size : 356 MiB (14%)
    Title : English 5.1 @448 Kbps
    Language : English
    Service kind : Complete Main
    Default : No
    Forced : No

    Text #1
    ID : 4
    Format : VobSub
    Muxing mode : zlib
    Codec ID : S_VOBSUB
    Codec ID/Info : Picture based subtitle format used on DVDs
    Duration : 1 h 50 min
    Bit rate : 1 866 b/s
    Count of elements : 1296
    Stream size : 1.47 MiB (0%)
    Title : Thai 480p
    Language : Thai
    Default : No
    Forced : No

    Text #2
    ID : 5
    Format : VobSub
    Muxing mode : zlib
    Codec ID : S_VOBSUB
    Codec ID/Info : Picture based subtitle format used on DVDs
    Duration : 1 h 50 min
    Bit rate : 3 641 b/s
    Count of elements : 1296
    Stream size : 2.88 MiB (0%)
    Title : Thai 720p
    Language : Thai
    Default : No
    Forced : No

    Text #3
    ID : 6
    Format : VobSub
    Muxing mode : zlib
    Codec ID : S_VOBSUB
    Codec ID/Info : Picture based subtitle format used on DVDs
    Duration : 1 h 50 min
    Bit rate : 6 482 b/s
    Count of elements : 1296
    Stream size : 5.12 MiB (0%)
    Title : Thai 1080p
    Language : Thai
    Default : Yes
    Forced : No

    Text #4
    ID : 7
    Format : VobSub
    Muxing mode : zlib
    Codec ID : S_VOBSUB
    Codec ID/Info : Picture based subtitle format used on DVDs
    Duration : 1 h 50 min
    Bit rate : 6 482 b/s
    Count of elements : 1296
    Stream size : 5.12 MiB (0%)
    Title : Thai 1080p Yellow
    Language : Thai
    Default : No
    Forced : No

    Text #5
    ID : 8
    Format : PGS
    Muxing mode : zlib
    Codec ID : S_HDMV/PGS
    Codec ID/Info : Picture based subtitle format used on BDs/HD-DVDs
    Duration : 1 h 50 min
    Bit rate : 26.1 kb/s
    Count of elements : 2592
    Stream size : 20.7 MiB (1%)
    Title : Thai PGS BluRay Master
    Language : Thai
    Default : No
    Forced : No

    Text #6
    ID : 9
    Format : PGS
    Muxing mode : zlib
    Codec ID : S_HDMV/PGS
    Codec ID/Info : Picture based subtitle format used on BDs/HD-DVDs
    Duration : 1 h 42 min
    Bit rate : 37.4 kb/s
    Count of elements : 2830
    Stream size : 27.5 MiB (1%)
    Title : English
    Language : English
    Default : No
    Forced : No

    Menu
    00:00:00.000 : en:Chapter 01
    00:05:41.132 : en:Chapter 02
    00:10:37.803 : en:Chapter 03
    00:15:44.026 : en:Chapter 04
    00:20:05.829 : en:Chapter 05
    00:28:20.699 : en:Chapter 06
    00:35:27.208 : en:Chapter 07
    00:41:05.045 : en:Chapter 08
    00:49:15.160 : en:Chapter 09
    00:54:43.488 : en:Chapter 10
    00:59:56.843 : en:Chapter 11
    01:07:12.111 : en:Chapter 12
    01:12:12.745 : en:Chapter 13
    01:17:47.162 : en:Chapter 14
    01:21:20.792 : en:Chapter 15
    01:27:25.031 : en:Chapter 16
    01:30:56.909 : en:Chapter 17
    01:38:49.465 : en:Chapter 18
    01:42:31.520 : en:Chapter 19
    01:44:27.594 : en:Chapter 20
    01:51:10.664 : en:Chapter 21














    Download: cornfile
    http://cornfile.com/wdw0shnxfa5h
    Download: mekafile
    http://www.mekafile.com/dl.php?f=B152a8bXIdxP

  2. The Following 3 Users Say Thank You to Duckload.us For This Useful Post:

    apichartdear (08-13-2019), noi54 (08-13-2019), smakha (08-14-2019)

  3. #2
    Senior Member
    Join Date
    Jun 2014
    Posts
    789
    Thanks
    0
    Thanked 0 Times in 0 Posts
    ขอบคุณครับ

  4. #3
    Senior Member
    Join Date
    Aug 2012
    Posts
    1,153
    Thanks
    1
    Thanked 0 Times in 0 Posts
    ขอบคุณครับ

  5. #4
    Senior Member
    Join Date
    Jul 2012
    Posts
    6,134
    Thanks
    0
    Thanked 0 Times in 0 Posts
    ขอบคุณมากจ้า

+ Reply to Thread

Thread Information

Users Browsing this Thread

There are currently 1 users browsing this thread. (0 members and 1 guests)

     

Posting Permissions

  • You may not post new threads
  • You may not post replies
  • You may not post attachments
  • You may not edit your posts