+ Reply to Thread
Results 1 to 3 of 3
  1. #1
    Administrators Duckload.us's Avatar
    Join Date
    Dec 2010
    Posts
    105,520
    Thanks
    9
    Thanked 109,198 Times in 51,203 Posts

    Question [ฝรั่ง]-[**ใหม่ + เสียงไทยโรง 5.1!!**] • [Netflix] I Am Mother (2019) : หุ่นเหล็ก โลกเรียกแม่ [1080p] [* NF.WEBRip.THR5.1.x264 *] [พากย์ไทยโรง 5.1 + เสียงอังกฤษ DD5.1] [บรรยายไทย Master From Netflix + อังกฤษ + ซับไทย PGS คมชัด]



    ••• 1080p.NF.WEBRip.THR5.1.x264 •••
    พากย์ไทยโรง 5.1 + เสียงอังกฤษ DD5.1 + บรรยายไทย Master From Netflix

    I Am Mother เป็นภาพยนตร์พล็อตล้ำฉีกกรอบโลกไซไฟกับเรืองราวของเด ็กสาววัยรุ่น “ดอเทอร์” (คลารา รูการ์ด) เป็นมนุษย์รุ่นแรกที่ถูกเลี้ยงขึ้นมาในศูนย์หลบภัยใต ้ดินกับ “มาเธอร์” หุ่นยนต์รูปร่างมนุษย์ที่ได้รับการพัฒนาขึ้นเพื่อทำห น้าที่เพาะพันธุ์มนุษย์หลังวิกฤติสูญพันธุ์ แต่ความสัมพันธ์ระหว่างแม่ลูกคู่นี้ต้องสั่นคลอนเมื่ อมีผู้หญิงเลือดโชก (ฮิลารี สแวงก์) มาเคาะประตูขอความช่วยเหลือ หญิงแปลกหน้าผู้นี้ทำให้ความเชื่อของดอว์เทอร์ที่มีต ่อโลกภายนอกเปลี่ยนไป การเริ่มต้นค้นหาความจริงครั้งยิ่งใหญ่จึงเริ่มต้นขึ ้น!


    ตัวอย่างเสียงไทยโรง 5.1

    Format : Matroska
    Format version : Version 4
    File size : 5.69 GiB
    Duration : 1 h 53 min
    Overall bit rate : 7 168 kb/s
    Movie name : {WEB-DL}_I.Am.Mother.2019.1080p.NF.WEBRip.THR5.1.x264_B y [email protected]

    Video
    ID : 1
    Format : AVC
    Format/Info : Advanced Video Codec
    Format profile : [email protected]
    Format settings : CABAC / 3 Ref Frames
    Format settings, CABAC : Yes
    Format settings, Reference : 3 frames
    Codec ID : V_MPEG4/ISO/AVC
    Duration : 1 h 53 min
    Bit rate mode : Variable
    Bit rate : 5 800 kb/s
    Maximum bit rate : 8 700 kb/s
    Width : 1 920 pixels
    Height : 1 080 pixels
    Display aspect ratio : 16:9
    Frame rate mode : Constant
    Frame rate : 24.000 FPS
    Color space : YUV
    Chroma subsampling : 4:2:0
    Bit depth : 8 bits
    Scan type : Progressive
    Bits/(Pixel*Frame) : 0.117
    Stream size : 4.56 GiB (80%)
    Title : {WEB-DL}_I.Am.Mother.2019.1080p.NF.WEBRip.THR5.1.x264_B y [email protected]
    Writing library : x264 core 148 r2715 7e75228
    Encoding settings : cabac=1 / ref=3 / deblock=1:0:0 / analyse=0x1:0x111 / me=umh / subme=10 / psy=1 / psy_rd=1.00:0.00 / mixed_ref=1 / me_range=24 / chroma_me=1 / trellis=2 / 8x8dct=0 / cqm=0 / deadzone=21,11 / fast_pskip=1 / chroma_qp_offset=-2 / threads=6 / lookahead_threads=1 / sliced_threads=0 / nr=0 / decimate=1 / interlaced=0 / bluray_compat=0 / stitchable=1 / constrained_intra=0 / bframes=2 / b_pyramid=0 / b_adapt=2 / b_bias=0 / direct=3 / weightb=1 / open_gop=0 / weightp=2 / keyint=250 / keyint_min=24 / scenecut=0 / intra_refresh=0 / rc_lookahead=48 / rc=2pass / mbtree=1 / bitrate=5800 / ratetol=1.0 / qcomp=0.50 / qpmin=6 / qpmax=51 / qpstep=4 / cplxblur=20.0 / qblur=0.5 / vbv_maxrate=8700 / vbv_bufsize=11600 / nal_hrd=vbr / filler=0 / ip_ratio=1.40 / aq=1:1.00
    Language : English
    Default : Yes
    Forced : No

    Audio #1
    ID : 2
    Format : AC-3
    Format/Info : Audio Coding 3
    Commercial name : Dolby Digital
    Codec ID : A_AC3
    Duration : 1 h 53 min
    Bit rate mode : Constant
    Bit rate : 640 kb/s
    Channel(s) : 6 channels
    Channel layout : L R C LFE Ls Rs
    Sampling rate : 48.0 kHz
    Frame rate : 31.250 FPS (1536 SPF)
    Bit depth : 16 bits
    Compression mode : Lossy
    Stream size : 520 MiB (9%)
    Title : ThaiRong 5.1 @ 640 kb/s By Mr.Captain
    Language : Thai
    Service kind : Complete Main
    Default : Yes
    Forced : Yes

    Audio #2
    ID : 3
    Format : E-AC-3
    Format/Info : Enhanced AC-3
    Commercial name : Dolby Digital Plus
    Codec ID : A_EAC3
    Duration : 1 h 53 min
    Bit rate mode : Constant
    Bit rate : 640 kb/s
    Channel(s) : 6 channels
    Channel layout : L R C LFE Ls Rs
    Sampling rate : 48.0 kHz
    Frame rate : 31.250 FPS (1536 SPF)
    Compression mode : Lossy
    Stream size : 520 MiB (9%)
    Title : English 5.1
    Language : English
    Service kind : Complete Main
    Default : No
    Forced : No

    Text #1
    ID : 4
    Format : VobSub
    Codec ID : S_VOBSUB
    Codec ID/Info : Picture based subtitle format used on DVDs
    Duration : 1 h 46 min
    Bit rate : 1 600 b/s
    Count of elements : 898
    Stream size : 1.22 MiB (0%)
    Title : Thai 480P
    Language : Thai
    Default : No
    Forced : No

    Text #2
    ID : 5
    Format : VobSub
    Codec ID : S_VOBSUB
    Codec ID/Info : Picture based subtitle format used on DVDs
    Duration : 1 h 46 min
    Bit rate : 3 060 b/s
    Count of elements : 898
    Stream size : 2.33 MiB (0%)
    Title : Thai 720P
    Language : Thai
    Default : No
    Forced : No

    Text #3
    ID : 6
    Format : VobSub
    Codec ID : S_VOBSUB
    Codec ID/Info : Picture based subtitle format used on DVDs
    Duration : 1 h 46 min
    Bit rate : 5 497 b/s
    Count of elements : 898
    Stream size : 4.18 MiB (0%)
    Title : Thai 1080P
    Language : Thai
    Default : No
    Forced : No

    Text #4
    ID : 7
    Format : VobSub
    Codec ID : S_VOBSUB
    Codec ID/Info : Picture based subtitle format used on DVDs
    Duration : 1 h 46 min
    Bit rate : 6 998 b/s
    Count of elements : 898
    Stream size : 5.32 MiB (0%)
    Title : Thai 1080P BIG
    Language : Thai
    Default : No
    Forced : No

    Text #5
    ID : 8
    Format : VobSub
    Codec ID : S_VOBSUB
    Codec ID/Info : Picture based subtitle format used on DVDs
    Duration : 1 h 46 min
    Bit rate : 5 497 b/s
    Count of elements : 898
    Stream size : 4.18 MiB (0%)
    Title : Thai 1080P OUT
    Language : Thai
    Default : No
    Forced : No

    Text #6
    ID : 9
    Format : VobSub
    Codec ID : S_VOBSUB
    Codec ID/Info : Picture based subtitle format used on DVDs
    Duration : 1 h 46 min
    Bit rate : 6 998 b/s
    Count of elements : 898
    Stream size : 5.32 MiB (0%)
    Title : Thai 1080P BIG[OUT]
    Language : Thai
    Default : No
    Forced : No

    Text #7
    ID : 10
    Format : VobSub
    Codec ID : S_VOBSUB
    Codec ID/Info : Picture based subtitle format used on DVDs
    Duration : 1 h 46 min
    Bit rate : 5 511 b/s
    Count of elements : 898
    Stream size : 4.19 MiB (0%)
    Title : Thai 1080P Yellow
    Language : Thai
    Default : No
    Forced : No

    Text #8
    ID : 11
    Format : UTF-8
    Codec ID : S_TEXT/UTF8
    Codec ID/Info : UTF-8 Plain Text
    Duration : 1 h 42 min
    Bit rate : 36 b/s
    Count of elements : 912
    Stream size : 27.7 KiB (0%)
    Title : English
    Language : English
    Default : No
    Forced : No

    Text #9
    ID : 12
    Format : PGS
    Codec ID : S_HDMV/PGS
    Codec ID/Info : Picture based subtitle format used on BDs/HD-DVDs
    Duration : 1 h 46 min
    Bit rate : 25.1 kb/s
    Count of elements : 1798
    Stream size : 19.1 MiB (0%)
    Title : Thai PGS
    Language : Thai
    Default : Yes
    Forced : No

    Text #10
    ID : 13
    Format : PGS
    Codec ID : S_HDMV/PGS
    Codec ID/Info : Picture based subtitle format used on BDs/HD-DVDs
    Duration : 1 h 46 min
    Bit rate : 33.1 kb/s
    Count of elements : 1798
    Stream size : 25.2 MiB (0%)
    Title : Thai PGS BIG
    Language : Thai
    Default : No
    Forced : No

    Text #11
    ID : 14
    Format : PGS
    Codec ID : S_HDMV/PGS
    Codec ID/Info : Picture based subtitle format used on BDs/HD-DVDs
    Duration : 1 h 46 min
    Bit rate : 25.1 kb/s
    Count of elements : 1798
    Stream size : 19.1 MiB (0%)
    Title : Thai PGS OUT
    Language : Thai
    Default : No
    Forced : No

    Text #12
    ID : 15
    Format : PGS
    Codec ID : S_HDMV/PGS
    Codec ID/Info : Picture based subtitle format used on BDs/HD-DVDs
    Duration : 1 h 46 min
    Bit rate : 25.1 kb/s
    Count of elements : 1798
    Stream size : 19.1 MiB (0%)
    Title : Thai PGS Yellow
    Language : Thai
    Default : No
    Forced : No













    Download: cornfile
    http://cornfile.com/q2zzb924g7po
    Download: mekafile
    http://www.mekafile.com/dl.php?f=8p8a0abXIl0v

  2. The Following 4 Users Say Thank You to Duckload.us For This Useful Post:

    apichartdear (08-13-2019), noi54 (08-14-2019), smakha (08-14-2019), Wesker_TOT (08-14-2019)

  3. #2
    Senior Member
    Join Date
    Jun 2014
    Posts
    789
    Thanks
    0
    Thanked 0 Times in 0 Posts
    ขอบคุณครับ

  4. #3
    Senior Member
    Join Date
    Dec 2013
    Posts
    1,728
    Thanks
    3,683
    Thanked 0 Times in 0 Posts
    ขอบคุณนะครับ...

+ Reply to Thread

Thread Information

Users Browsing this Thread

There are currently 1 users browsing this thread. (0 members and 1 guests)

     

Posting Permissions

  • You may not post new threads
  • You may not post replies
  • You may not post attachments
  • You may not edit your posts