720P.TC.X264
ҡç 2.0 + § 2.0 + ¨չѧ

ʹѡ׺⤹ѹٿ 23 ֡ԧѭդ ӻչԹ ᫿좹Ҵ˭شš觨㹷ᶺ ѺѴ㹪ǧȵɷ 19 ١ɰշͧ纡 йǴ˹Ҹó ѺԴզҵ鹷չ᫹ 㹷Դ˵ع͹ͧäԴ ͹ʹ... ǡѹ ѹѺСԹҧҪ觢ѹѴ 鹷ԧʹ ǹ⤹ѹԹҧͧ͡͡ҡվ ʻ ֧ͧҺҹ äԴͧªҡ⤹ѹ ֧ҡ͡;ҵ⤹ѹѧԧ ѧѺŧѺִ蹵 ԡҢ ͼա ҡӵԴ͡ ⤹ѹöѺ Ͷ١ѹ·͡ҤͶ ⤹ѹ֧ͺҪ (!?)

ҤԴѺҺ᫿Ѻ㹵 ૿Թͧʹ˹ á֡ѡͺ ԧǷաѺѡشʹѹͤԴ 蹤͡༪ԭ˹ҡѺ⡢ ѡش觼 400 Ѵ еҡͧԴ...!? йᴧҹ١͡Ҩҡҡ͹ ѭѡɳͧԧ ǡѺҧ͡˵ºҧҧ!!


Format : Matroska
Format version : Version 4
File size : 1.68 GiB
Duration : 1 h 39 min
Overall bit rate : 2 424 kb/s
Movie name : {ZoomV.1}_Detective.Conan.The.Fist.of.Blue.Sapphir e.2019.720P.TC.X264_By [email protected]

Video
ID : 1
Format : AVC
Format/Info : Advanced Video Codec
Format profile : [email protected]
Format settings : 1 Ref Frames
Format settings, CABAC : No
Format settings, Reference : 1 frame
Format settings, GOP : M=1, N=15
Codec ID : V_MPEG4/ISO/AVC
Duration : 1 h 39 min
Bit rate : 1 900 kb/s
Width : 1 024 pixels
Height : 576 pixels
Display aspect ratio : 16:9
Frame rate mode : Constant
Frame rate : 30.000 FPS
Color space : YUV
Chroma subsampling : 4:2:0
Bit depth : 8 bits
Scan type : Progressive
Bits/(Pixel*Frame) : 0.107
Stream size : 1.33 GiB (79%)
Title : {ZoomV.1}_Detective.Conan.The.Fist.of.Blue.Sapphir e.2019.720P.TC.X264_By [email protected]
Writing library : x264 core 118
Encoding settings : cabac=0 / ref=1 / deblock=1:0:0 / analyse=0x1:0x111 / me=dia / subme=0 / psy=0 / mixed_ref=0 / me_range=16 / chroma_me=1 / trellis=0 / 8x8dct=0 / cqm=0 / deadzone=21,11 / fast_pskip=1 / chroma_qp_offset=0 / threads=8 / sliced_threads=0 / nr=0 / decimate=1 / interlaced=0 / bluray_compat=0 / constrained_intra=0 / bframes=0 / weightp=0 / keyint=15 / keyint_min=1 / scenecut=0 / intra_refresh=0 / rc=abr / mbtree=0 / bitrate=1900 / ratetol=1.0 / qcomp=0.60 / qpmin=10 / qpmax=51 / qpstep=4 / ip_ratio=1.40 / aq=0
Language : Chinese
Default : Yes
Forced : No

Audio #1
ID : 2
Format : AC-3
Format/Info : Audio Coding 3
Commercial name : Dolby Digital
Codec ID : A_AC3
Duration : 1 h 39 min
Bit rate mode : Constant
Bit rate : 384 kb/s
Channel(s) : 2 channels
Channel layout : L R
Sampling rate : 48.0 kHz
Frame rate : 31.250 FPS (1536 SPF)
Bit depth : 16 bits
Compression mode : Lossy
Stream size : 273 MiB (16%)
Title : ThaiRong 2.0 @ 384 kb/s By Mr.Captain
Language : Thai
Service kind : Complete Main
Default : Yes
Forced : Yes

Audio #2
ID : 3
Format : AAC LC
Format/Info : Advanced Audio Codec Low Complexity
Codec ID : A_AAC-2
Duration : 1 h 39 min
Bit rate : 127 kb/s
Channel(s) : 2 channels
Channel layout : L R
Sampling rate : 48.0 kHz
Frame rate : 46.875 FPS (1024 SPF)
Compression mode : Lossy
Stream size : 90.5 MiB (5%)
Title : Japanese 2.0
Language : Japanese
Default : No
Forced : Yes






Download: cornfile
http://cornfile.com/71n7894x3wb3
Download: mekafile
http://www.mekafile.com/dl.php?f=0qc442bXKXSl