+ Reply to Thread
Results 1 to 1 of 1
  1. #1
    Administrators Duckload.us's Avatar
    Join Date
    Dec 2010
    Posts
    106,041
    Thanks
    9
    Thanked 109,970 Times in 51,393 Posts

    (..ҡ)-FAMILY (2019).[Super HQ]-[WEBRip.1080p.X264][ Sound:Eng DTS 5.1 & AAC 2.0/Thai AC3 5.1 & AAC 2.0][SUB:Eng*SRT*]




    Family (2019)
    R | 1h 25min | Comedy | 19 April 2019 (USA) :IMDb:6.2/ 10
    Director: Laura Steinel
    Writer: Laura Steinel
    Stars: Taylor Schilling, Kate McKinnon, Brian Tyree Henry

    �� 1080p سҾ٧! ��
    �� :ѧ SRT! ��
    (Ѻ SRT öԴ,Դ¹ŧѡú ͧ /Ҵ/˹/ѡɳ- 觫Ѻ·价pgs-vob sub Ҩҡ DVD Bluray)
    �� § From Master.


    Kate Stone is career-focused, and enjoys her life that way. Her brash attitude keeps relationships at arm's length, making her an outcast in her own right

    Format : Matroska
    Format version : Version 4
    File size : 4.20 GiB
    Duration : 1 h 26 min
    Overall bit rate : 6 996 kb/s
    Movie name : Family (2018) [WEBRip 1080p-[SUPER HQ][email protected] CUP
    Cover : Yes
    Attachments : cover.jpg

    Video
    ID : 1
    Format : AVC
    Format/Info : Advanced Video Codec
    Format profile : [email protected]
    Format settings : CABAC / 1 Ref Frames
    Format settings, CABAC : Yes
    Format settings, Reference : 1 frame
    Format settings, GOP : M=1, N=25
    Codec ID : V_MPEG4/ISO/AVC
    Duration : 1 h 26 min
    Bit rate mode : Constant
    Bit rate : 5 500 kb/s
    Width : 1 904 pixels
    Height : 784 pixels
    Display aspect ratio : 2.40:1
    Frame rate mode : Constant
    Frame rate : 29.970 (30000/1001) FPS
    Color space : YUV
    Chroma subsampling : 4:2:0
    Bit depth : 8 bits
    Scan type : Progressive
    Bits/(Pixel*Frame) : 0.123
    Stream size : 3.30 GiB (79%)
    Title : Family (2018) [WEBRip 1080p-[SUPER HQ][email protected] CUP
    Language : English
    Default : Yes
    Forced : No

    Audio #1
    ID : 2
    Format : AC-3
    Format/Info : Audio Coding 3
    Commercial name : Dolby Digital
    Codec ID : A_AC3
    Duration : 1 h 26 min
    Bit rate mode : Constant
    Bit rate : 640 kb/s
    Channel(s) : 6 channels
    Channel layout : L R C LFE Ls Rs
    Sampling rate : 44.1 kHz
    Frame rate : 28.711 FPS (1536 SPF)
    Bit depth : 16 bits
    Compression mode : Lossy
    Stream size : 394 MiB (9%)
    Title : 5.1 AC3 Thai 640k 393m
    Language : Thai
    Service kind : Complete Main
    Default : Yes
    Forced : No

    Audio #2
    ID : 3
    Format : DTS
    Format/Info : Digital Theater Systems
    Codec ID : A_DTS
    Duration : 1 h 26 min
    Bit rate mode : Constant
    Bit rate : 661 kb/s
    Channel(s) : 6 channels
    Channel layout : C L R Ls Rs LFE
    Sampling rate : 8 000 Hz
    Frame rate : 7.813 FPS (1024 SPF)
    Bit depth : 16 bits
    Compression mode : Lossy
    Stream size : 407 MiB (9%)
    Title : DTS 5.1 Eng 8000-406m
    Language : English
    Default : No
    Forced : No

    Audio #3
    ID : 4
    Format : AAC LC
    Format/Info : Advanced Audio Codec Low Complexity
    Codec ID : A_AAC-2
    Duration : 1 h 26 min
    Bit rate : 192 kb/s
    Channel(s) : 2 channels
    Channel layout : L R
    Sampling rate : 44.1 kHz
    Frame rate : 43.066 FPS (1024 SPF)
    Compression mode : Lossy
    Stream size : 120 MiB (3%)
    Title : 2.0 AAC 192K 120M
    Language : English
    Default : No
    Forced : No

    Text #1
    ID : 5
    Format : UTF-8
    Codec ID : S_TEXT/UTF8
    Codec ID/Info : UTF-8 Plain Text
    Duration : 1 h 24 min
    Bit rate : 88 b/s
    Count of elements : 1600
    Stream size : 55.1 KiB (0%)
    Title : SRT
    Language : English
    Default : Yes
    Forced : No

    Text #2
    ID : 6
    Format : UTF-8
    Codec ID : S_TEXT/UTF8
    Codec ID/Info : UTF-8 Plain Text
    Duration : 1 h 25 min
    Bit rate : 91 b/s
    Count of elements : 1667
    Stream size : 57.2 KiB (0%)
    Title : SRT-Hearing Impaired=麡ͧҧ§
    Language : English
    Default : No
    Forced : No







    Download: cornfile
    http://cornfile.com/exzswb1pq6gi
    Download: mekafile
    http://www.mekafile.com/dl.php?f=20a553bY7MPC

  2. The Following 2 Users Say Thank You to Duckload.us For This Useful Post:

    amorn wichian (08-24-2019), noi54 (08-26-2019)

Thread Information

Users Browsing this Thread

There are currently 1 users browsing this thread. (0 members and 1 guests)

     

Posting Permissions

  • You may not post new threads
  • You may not post replies
  • You may not post attachments
  • You may not edit your posts