+ Reply to Thread
Results 1 to 2 of 2
  1. #1
    Administrators Duckload.us's Avatar
    Join Date
    Dec 2010
    Posts
    106,060
    Thanks
    9
    Thanked 109,985 Times in 51,401 Posts

    Question [ฝรั่ง][ใหม่.พากย์ไทยมาสเตอร์]-COLD PURSUIT (2019) แค้นลั่นนรก-[Super HQ]-[BluRay.1080p.X264][Sound:Eng DTS & MP3/Thai AC3 5.1:Master.Modifide][SUB:Eng.SRT]



    เนลส์เป็นหัวหน้าครอบครัวที่สงบสุขและสันโดษ เขาใช้ชีวิตอย่างเรียบง่ายทำงานขับรถกวาดหิมะในช่วงฤ ดูหนาว แต่แล้วลูกชายของเขากลับถูกฆาตกรรมโดยเจ้าพ่อค้ายาเส พติด เมื่อชีวิตที่ไม่มีอะไรจะเสีย เขาได้เลือกเส้นทางแห่งการชำระบาปและการล้างแค้น
    ขอต้อนรับสู่เมือง “คีโฮ” อากาศอันหนาวเหน็บด้วยอุณหภูมิ -10 องศา ที่นี่เป็นเมืองสกีรีสอร์ท ท่ามกลางหุบเขาร็อกกี้ ที่นี่เป็นเมืองเงียบสงบ ตำรวจท้องที่ไม่คุ้นเคยกับคดีอุกฉกรรจ์ แต่แล้วก็มีคดีการถูกฆาตกรรมลูกชายของคนขับรถกวาดหิม ะอย่าง เนลส์ ค็อกซ์แมน (เลียม นีสัน) ซึ่งเป็นการออกคำสั่งของ ไวกิ้ง (ทอม เบทแมน) พ่อค้ายาเสพติดรายใหญ่ ด้วยความแค้นและอาวุธครบมือ เนลส์ ได้ออกไล่ฆ่าแก๊งอันธพาลทีละคนๆ โดยอาศัยความรู้ ความเข้าใจของการฆ่าคนจากนิยายฆาตกรรม ในขณะที่ศพเริ่มเพิ่มมากขึ้นเรื่อยๆ การกระทำของเนลส์ได้เป็นการจุดชนวนก่อให้เกิดสงครามร ะหว่างแก๊งผู้ค้ายาเสพติดของไวกิ้ง และ ไวท์บูล (ทอม แจ็คสัน) มาเฟียชนเผ่าอินเดียนแดง จากเมืองที่เงียบสงบจะกลายเป็นเมืองที่เดือดระห่ำ เต็มไปด้วยเลือดในชั่วพริบตา

    Format : Matroska
    Format version : Version 4
    File size : 4.67 GiB
    Duration : 1 h 59 min
    Overall bit rate : 5 621 kb/s
    Movie name : Cold.Pursuit.2019.1080p.BluRay.x264-[SUPER HQ][email protected] CUP
    Encoded date : UTC 2019-09-11 07:05:22
    Writing application : mkvmerge v37.0.0 ('Leave It') 64-bit
    Writing library : libebml v1.3.9 + libmatroska v1.5.2
    Cover : Yes
    Attachments : cover.jpg

    Video
    ID : 1
    Format : AVC
    Format/Info : Advanced Video Codec
    Format profile : [email protected]
    Format settings : CABAC / 1 Ref Frames
    Format settings, CABAC : Yes
    Format settings, Reference frames : 1 frame
    Format settings, GOP : M=1, N=25
    Codec ID : V_MPEG4/ISO/AVC
    Duration : 1 h 59 min
    Bit rate mode : Constant
    Bit rate : 4 000 kb/s
    Width : 1 920 pixels
    Height : 800 pixels
    Display aspect ratio : 2.40:1
    Frame rate mode : Constant
    Frame rate : 29.970 (30000/1001) FPS
    Color space : YUV
    Chroma subsampling : 4:2:0
    Bit depth : 8 bits
    Scan type : Progressive
    Bits/(Pixel*Frame) : 0.087
    Stream size : 3.32 GiB (71%)
    Title : Cold.Pursuit.2019.1080p.BluRay.x264-[SUPER HQ][email protected] CUP
    Language : English
    Default : Yes
    Forced : No

    Audio #1
    ID : 2
    Format : AC-3
    Format/Info : Audio Coding 3
    Commercial name : Dolby Digital
    Codec ID : A_AC3
    Duration : 1 h 59 min
    Bit rate mode : Constant
    Bit rate : 640 kb/s
    Channel(s) : 6 channels
    Channel layout : L R C LFE Ls Rs
    Sampling rate : 44.1 kHz
    Frame rate : 28.711 FPS (1536 SPF)
    Bit depth : 16 bits
    Compression mode : Lossy
    Stream size : 545 MiB (11%)
    Title : 5.1 AC3 Thai 640K 544M
    Language : Thai
    Service kind : Complete Main
    Default : Yes
    Forced : No

    Audio #2
    ID : 3
    Format : DTS
    Format/Info : Digital Theater Systems
    Codec ID : A_DTS
    Duration : 1 h 59 min
    Bit rate mode : Constant
    Bit rate : 661 kb/s
    Channel(s) : 6 channels
    Channel layout : C L R Ls Rs LFE
    Sampling rate : 8 000 Hz
    Frame rate : 7.813 FPS (1024 SPF)
    Bit depth : 16 bits
    Compression mode : Lossy
    Stream size : 563 MiB (12%)
    Title : DTS 5.1 Eng 8000-562M
    Language : English
    Default : No
    Forced : No

    Audio #3
    ID : 4
    Format : MPEG Audio
    Format version : Version 1
    Format profile : Layer 3
    Codec ID : A_MPEG/L3
    Codec ID/Hint : MP3
    Duration : 1 h 59 min
    Bit rate mode : Constant
    Bit rate : 320 kb/s
    Channel(s) : 2 channels
    Sampling rate : 44.1 kHz
    Frame rate : 38.281 FPS (1152 SPF)
    Compression mode : Lossy
    Stream size : 272 MiB (6%)
    Title : 2.0 MP3 Eng 320K 272M
    Language : English
    Default : No
    Forced : No

    Text #1
    ID : 5
    Format : UTF-8
    Codec ID : S_TEXT/UTF8
    Codec ID/Info : UTF-8 Plain Text
    Duration : 1 h 45 min
    Bit rate : 41 b/s
    Count of elements : 967
    Stream size : 31.8 KiB (0%)
    Title : SRT
    Language : English
    Default : Yes
    Forced : No

    Text #2
    ID : 6
    Format : UTF-8
    Codec ID : S_TEXT/UTF8
    Codec ID/Info : UTF-8 Plain Text
    Duration : 1 h 49 min
    Bit rate : 45 b/s
    Count of elements : 1129
    Stream size : 36.1 KiB (0%)
    Title : SER-Hearing Impaired=ผู้บกพร่องทางเสียง
    Language : English
    Default : No
    Forced : No





    4.7 GB
    Download: cornfile
    http://cornfile.com/5g4js9xlpms2
    Download: mekafile
    http://www.mekafile.com/dl.php?f=wv1b0ebYTXBq

    11.8 GB
    Download: cornfile
    http://cornfile.com/yd4tkqrtlkfu
    Download: mekafile
    http://www.mekafile.com/dl.php?f=hQ96b2bYWEQl

    2.98 GB
    Download: cornfile
    http://cornfile.com/gzfjvih6wayt
    Download: mekafile
    http://www.mekafile.com/dl.php?f=owac55bYZ2AK

    4.67 GB
    Download: cornfile
    http://cornfile.com/bf7yt6vt4oz3
    Download: mekafile
    http://www.mekafile.com/dl.php?f=Wu1b0ebYZ2Pc

  2. The Following 7 Users Say Thank You to Duckload.us For This Useful Post:

    apichartdear (09-12-2019), bigbang06 (09-11-2019), Liquidman (09-12-2019), noi54 (09-11-2019), spiderpud2 (09-12-2019), Tellmon (09-13-2019), thesuperpop (09-13-2019)

  3. #2
    Senior Member
    Join Date
    Jun 2014
    Posts
    866
    Thanks
    0
    Thanked 0 Times in 0 Posts
    ขอบคุณครับ

+ Reply to Thread

Thread Information

Users Browsing this Thread

There are currently 1 users browsing this thread. (0 members and 1 guests)

     

Posting Permissions

  • You may not post new threads
  • You may not post replies
  • You may not post attachments
  • You may not edit your posts