+ Reply to Thread
Results 1 to 2 of 2
  1. #1
    Administrators Duckload.us's Avatar
    Join Date
    Dec 2010
    Posts
    106,060
    Thanks
    9
    Thanked 109,985 Times in 51,401 Posts

    Question [ฝรั่ง][ใหม่.พากย์ไทยมาสเตอร์]-DESTINATION WEDDING (2018) ไปงานแต่งเขา แต่เรารักกัน-[Super HQ]-[BluRay.1080p.X264][Sound:Eng DTS & AAC/Thai AC3 5.1:Master.Modifide][SUB:Eng.SRT]



    การกลับมาพบกันอีกครั้งของสองนักแสดงระดับไอค่อนแห่ง ยุค 90
    นักแสดงชายหน้าหนุ่มตลอดกาล อย่าง “คีอานู รีฟส์” จากภาพยนตร์ John Wick (จอห์น วิค)
    และ “วิโนน่า ไรเดอร์” นักแสดงหญิงผู้เข้าชิงรางวัลลูกโลกทองคำจากซีรีย์ยอด นิยม “Stranger Things” (สะแตรนเจอร์ ธิงค์)
    กำลังจะโคจรมาพบกันใน “DESTINATION WEDDING (เดสติเนชั่น เวดดิ้ง) ไปงานแต่งเขาแต่เรารักกัน”
    ภาพยนตร์โรแมนติกคอเมดี้ที่จะทำให้เหล่าคนโสดต้องหัว ใจเต้นแรง กับเรื่องราวของคนสองขั้วที่ทั้งคู่ต้องเดินทางไปร่ว มงานแต่งนอกสถานที่ด้วยกัน
    แม้จะดูเหมือนว่าพวกเขาทั้งสองจะเข้ากันไม่ได้เลยแม้ แต่น้อยก็ตามที “DESTINATION WEDDING (เดสติเนชั่น เวดดิ้ง)” บอกเล่าเรื่องราวของ แฟรงค์ (คีอานู รีฟส์)
    และ ลินซี่ (วิโนน่า ไรเดอร์) แขกรับเชิญสองคนที่ตกอยู่ในสถานการณ์บังคับให้ต้องร่ วมทางกันเพื่อเดินทางไปยังงานแต่งนอกสถานที่
    พวกเขาต่างรู้สึกเบื่อหน่ายกับงานแต่งครั้งนี้ นั่นเป็นเพราะทั้งแฟรงค์และลินซี่ไม่ใช่คนที่เชื่อใน ความรัก แต่ถึงแม้พวกเขาจะมีปากเสียงกันตลอดเวลา
    ความสัมพันธ์บางอย่างระหว่างเขาและเธอกลับเริ่มงอกเง ยในงานแต่งสุดอลเวงครั้งนี้!!!

    Format : Matroska
    Format version : Version 4
    File size : 3.93 GiB
    Duration : 1 h 26 min
    Overall bit rate : 6 494 kb/s
    Movie name : Destination.Wedding.2018.1080p.BluRay.x264-[Super HQ][email protected] Cup
    Cover : Yes
    Attachments : cover.jpg

    Video
    ID : 1
    Format : AVC
    Format/Info : Advanced Video Codec
    Format profile : [email protected]
    Format settings : CABAC / 1 Ref Frames
    Format settings, CABAC : Yes
    Format settings, Reference : 1 frame
    Format settings, GOP : M=1, N=25
    Codec ID : V_MPEG4/ISO/AVC
    Duration : 1 h 26 min
    Bit rate mode : Constant
    Bit rate : 5 000 kb/s
    Width : 1 920 pixels
    Height : 800 pixels
    Display aspect ratio : 2.40:1
    Frame rate mode : Constant
    Frame rate : 29.970 (30000/1001) FPS
    Color space : YUV
    Chroma subsampling : 4:2:0
    Bit depth : 8 bits
    Scan type : Progressive
    Bits/(Pixel*Frame) : 0.109
    Stream size : 3.02 GiB (77%)
    Title : Destination.Wedding.2018.1080p.BluRay.x264-[Super HQ][email protected] Cup
    Language : English
    Default : Yes
    Forced : No

    Audio #1
    ID : 2
    Format : AC-3
    Format/Info : Audio Coding 3
    Commercial name : Dolby Digital
    Codec ID : A_AC3
    Duration : 1 h 26 min
    Bit rate mode : Constant
    Bit rate : 640 kb/s
    Channel(s) : 6 channels
    Channel layout : L R C LFE Ls Rs
    Sampling rate : 44.1 kHz
    Frame rate : 28.711 FPS (1536 SPF)
    Bit depth : 16 bits
    Compression mode : Lossy
    Stream size : 396 MiB (10%)
    Title : 5.1 AC3 Thai 640K 396M
    Language : Thai
    Service kind : Complete Main
    Default : Yes
    Forced : No

    Audio #2
    ID : 3
    Format : DTS
    Format/Info : Digital Theater Systems
    Codec ID : A_DTS
    Duration : 1 h 26 min
    Bit rate mode : Constant
    Bit rate : 661 kb/s
    Channel(s) : 6 channels
    Channel layout : C L R Ls Rs LFE
    Sampling rate : 8 000 Hz
    Frame rate : 7.813 FPS (1024 SPF)
    Bit depth : 16 bits
    Compression mode : Lossy
    Stream size : 409 MiB (10%)
    Title : 5.1 dts Eng 8000-406m
    Language : English
    Default : No
    Forced : No

    Audio #3
    ID : 4
    Format : AAC LC
    Format/Info : Advanced Audio Codec Low Complexity
    Codec ID : A_AAC-2
    Duration : 1 h 26 min
    Bit rate : 192 kb/s
    Channel(s) : 2 channels
    Channel layout : L R
    Sampling rate : 44.1 kHz
    Frame rate : 43.066 FPS (1024 SPF)
    Compression mode : Lossy
    Stream size : 121 MiB (3%)
    Title : 2.0 AAC 192K 121M
    Language : English
    Default : No
    Forced : No

    Text #1
    ID : 5
    Format : UTF-8
    Codec ID : S_TEXT/UTF8
    Codec ID/Info : UTF-8 Plain Text
    Duration : 1 h 18 min
    Bit rate : 88 b/s
    Count of elements : 1382
    Stream size : 51.3 KiB (0%)
    Title : SRT
    Language : English
    Default : Yes
    Forced : No

    Text #2
    ID : 6
    Format : UTF-8
    Codec ID : S_TEXT/UTF8
    Codec ID/Info : UTF-8 Plain Text
    Duration : 1 h 20 min
    Bit rate : 95 b/s
    Count of elements : 1520
    Stream size : 56.3 KiB (0%)
    Title : SRT -Hearing Impaired=ผู้บกพร่องทางเสียง
    Language : English
    Default : No
    Forced : No





    3.9 GB
    Download: cornfile
    http://cornfile.com/grpba51qlxt3
    Download: mekafile
    meka อัพไม่ได้ครับ หนังค่าย M

    1.72 GB
    Download: cornfile
    http://cornfile.com/k3i6d2ez8mft

  2. The Following User Says Thank You to Duckload.us For This Useful Post:

    noi54 (09-11-2019)

  3. #2
    Senior Member
    Join Date
    Jun 2014
    Posts
    866
    Thanks
    0
    Thanked 0 Times in 0 Posts
    ขอบคุณครับ

+ Reply to Thread

Thread Information

Users Browsing this Thread

There are currently 1 users browsing this thread. (0 members and 1 guests)

     

Posting Permissions

  • You may not post new threads
  • You may not post replies
  • You may not post attachments
  • You may not edit your posts