+ Reply to Thread
Results 1 to 5 of 5
  1. #1
    Administrators Duckload.us's Avatar
    Join Date
    Dec 2010
    Posts
    107,002
    Thanks
    9
    Thanked 111,490 Times in 51,829 Posts

    Question [ฝรั่ง]-[**ใหม่ ภาพมาสเตอร์ + เสียงไทยโรงชัด!**] Spider-Man: Far from Home (2019) : สไปเดอร์-แมน ฟาร์ ฟรอม โฮม [1080p] [* WEBRip.THR2.0.x264 *] [พากย์ไทยโรง 2.0 + เสียงอังกฤษ 2.0] [บรรยายอังกฤษ]



    •• 1080p.WEBRip.THR2.0.x264 •••
    พากย์ไทยโรง 2.0 + เสียงอังกฤษ 2.0 + บรรยายอังกฤษ

    Spider-Man Far From Home ทางค่าย Sony Pictures และ Marvel Studios ได้ทำการปล่อยตัวอย่างฉบับเต็มฉบับใหม่ของซูเปอร์ฮีโ ร่ไอ้แมงมุมภาคต่ออย่างSpider-Man: Far From Home ที่ได้รับการยืนยันอย่างเป็นทางการแล้วว่าจะเป็นเหตุ การณ์ที่เกิดขึ้นหลังจาก Avengers: Endgame

    Peter Parker ได้ออกไปทัศนศึกษาในช่วงวันหยุดฤดูร้อนในยุโรปพร้อมก ับเพื่อนๆ และในช่วงที่เขาห่างจากบ้านอยู่ต่างประเทศนี้เองก็เก ิดเหตุการณ์บางอย่างที่ทำให้เขาต้องไปจับมือรวมทีมกั บ Mysterio เพื่อต่อสู้กับเหล่าวายร้าย The Elementals. ภายในตัวอย่างฉบับใหม่นี้ไม่เพียงแค่จะเป็นการสปอยล์ เนื้อเรื่องส่วนสำคัญใน Avengers: Endgame แต่มันยังยืนยันข่าวลือก่อนหน้านี้ที่ว่า ตัวละคร Mysterio ของ Jake Gyllenhaal มาจากโลกมิติอื่น หรือมัลติเวิร์ส ที่ตื่นขึ้นเพราะพลังของมณี อีกด้วย

    Spider-Man: Far From Home นำแสดงโดย Tom Holland, Zendaya, Marisa Tomei, Michael Keaton, Jon Favreau และJacob Batalon ร่วมสมทบโดยการกลับมารับบทอีกครั้งของนักแสดงจาก MCU อย่าง Samuel L. Jackson และ Coby Smuldersในบท Nick Fury และ Maria Hill!


    Format : Matroska
    Format version : Version 4
    File size : 4.62 GiB
    Duration : 2 h 8 min
    Overall bit rate : 5 139 kb/s
    Movie name : {WEBRip}_Spider.Man.Far.From.Home.2019.1080p.WEBRi p.THR2.0.x264_By [email protected]

    Video
    ID : 1
    Format : AVC
    Format/Info : Advanced Video Codec
    Format profile : [email protected]
    Format settings : CABAC / 4 Ref Frames
    Format settings, CABAC : Yes
    Format settings, Reference : 4 frames
    Codec ID : V_MPEG4/ISO/AVC
    Duration : 2 h 8 min
    Bit rate : 4 500 kb/s
    Width : 1 920 pixels
    Height : 804 pixels
    Display aspect ratio : 2.40:1
    Frame rate mode : Constant
    Frame rate : 30.000 FPS
    Color space : YUV
    Chroma subsampling : 4:2:0
    Bit depth : 8 bits
    Scan type : Progressive
    Bits/(Pixel*Frame) : 0.097
    Stream size : 4.04 GiB (87%)
    Title : {WEBRip}_Spider.Man.Far.From.Home.2019.1080p.WEBRi p.THR2.0.x264_By [email protected]
    Writing library : x264 core 148 r2748 97eaef2
    Encoding settings : cabac=1 / ref=4 / deblock=1:0:0 / analyse=0x3:0x113 / me=umh / subme=9 / psy=1 / psy_rd=1.00:0.00 / mixed_ref=1 / me_range=16 / chroma_me=1 / trellis=2 / 8x8dct=1 / cqm=0 / deadzone=21,11 / fast_pskip=1 / chroma_qp_offset=-2 / threads=72 / lookahead_threads=6 / sliced_threads=0 / nr=0 / decimate=1 / interlaced=0 / bluray_compat=0 / constrained_intra=0 / bframes=3 / b_pyramid=2 / b_adapt=2 / b_bias=0 / direct=3 / weightb=1 / open_gop=0 / weightp=2 / keyint=250 / keyint_min=25 / scenecut=40 / intra_refresh=0 / rc_lookahead=50 / rc=abr / mbtree=1 / bitrate=4500 / ratetol=1.0 / qcomp=0.60 / qpmin=0 / qpmax=69 / qpstep=4 / ip_ratio=1.40 / aq=1:1.00
    Language : English
    Default : Yes
    Forced : No

    Audio #1
    ID : 2
    Format : AC-3
    Format/Info : Audio Coding 3
    Commercial name : Dolby Digital
    Codec ID : A_AC3
    Duration : 2 h 8 min
    Bit rate mode : Constant
    Bit rate : 384 kb/s
    Channel(s) : 2 channels
    Channel layout : L R
    Sampling rate : 48.0 kHz
    Frame rate : 31.250 FPS (1536 SPF)
    Bit depth : 16 bits
    Compression mode : Lossy
    Delay relative to video : -43 ms
    Stream size : 353 MiB (7%)
    Title : ThaiRong @ 384 kb/s By [email protected]
    Language : Thai
    Service kind : Complete Main
    Default : Yes
    Forced : No

    Audio #2
    ID : 3
    Format : AAC LC
    Format/Info : Advanced Audio Codec Low Complexity
    Codec ID : A_AAC-2
    Duration : 2 h 8 min
    Bit rate : 256 kb/s
    Channel(s) : 2 channels
    Channel layout : L R
    Sampling rate : 48.0 kHz
    Frame rate : 46.875 FPS (1024 SPF)
    Compression mode : Lossy
    Delay relative to video : -43 ms
    Stream size : 236 MiB (5%)
    Title : English 2.0 @ 256 kb/s
    Language : English
    Default : No
    Forced : No

    Text
    ID : 4
    Format : UTF-8
    Codec ID : S_TEXT/UTF8
    Codec ID/Info : UTF-8 Plain Text
    Duration : 2 h 7 min
    Bit rate : 61 b/s
    Count of elements : 2072
    Stream size : 57.1 KiB (0%)
    Title : English
    Language : English
    Default : Yes
    Forced : No














    Download: cornfile
    http://cornfile.com/amqrrcq40l3r
    Download: mekafile
    http://www.mekafile.com/dl.php?f=Wqfb10bYYyZo

  2. The Following 4 Users Say Thank You to Duckload.us For This Useful Post:

    jangska (09-13-2019), pumnarin (09-13-2019), Tellmon (09-13-2019), Wesker_TOT (09-14-2019)

  3. #2
    Junior Member
    Join Date
    Jun 2013
    Posts
    7
    Thanks
    0
    Thanked 0 Times in 0 Posts
    สมัครแบบ VIP รายปี ของ Mekafile ดาวน์โหลดวิ่งไม่ถึง 1M จะบ้าตายโหลด 3 hr. พอกันที

  4. #3
    Junior Member jangska's Avatar
    Join Date
    Sep 2015
    Posts
    8
    Thanks
    60
    Thanked 0 Times in 0 Posts
    ของผมปกตินะ อยู่ที่เน็ตคุณหรือป่าว ได้ใช้โปรแกรมช่วยดาวโหลดไหม?

  5. #4
    Senior Member
    Join Date
    Jun 2014
    Posts
    992
    Thanks
    0
    Thanked 0 Times in 0 Posts
    ขอบคุณครับ

  6. #5
    Senior Member
    Join Date
    Dec 2013
    Posts
    1,800
    Thanks
    3,745
    Thanked 0 Times in 0 Posts
    ขอบคุณนะครับ...

+ Reply to Thread

Thread Information

Users Browsing this Thread

There are currently 1 users browsing this thread. (0 members and 1 guests)

     

Posting Permissions

  • You may not post new threads
  • You may not post replies
  • You may not post attachments
  • You may not edit your posts