+ Reply to Thread
Results 1 to 3 of 3
  1. #1
    Administrators Duckload.us's Avatar
    Join Date
    Dec 2010
    Posts
    106,925
    Thanks
    9
    Thanked 111,408 Times in 51,816 Posts

    Question [จีน]-Shanghai Fortress (2019)เซี่ยงไฮ้ ปราการมหากาฬ==[Sub Thai Master Netflix]-WEB-DL.AC-3.1080p. [Rip]-[Soundtrack บรรยายไทย]



    Sound : Mandarin DDP 5.1

    Subtitle : Thai /ENG Master Netflix


    เซี่ยงไฮ้ ปราการมหากาฬ

    2019 1 ชั่วโมง 47 นาทีภาพยนตร์ต่างประเทศ

    ชายหนุ่มคนหนึ่งตกหลุมรักนายพลหญิงผู้กล้าหาญและไต่เ ต้าตามรอยเธอเพื่อปกป้องโลกจากศัตรูต่างดาวที่หมายชิ งแหล่งพลังงานล้ำค่าไปจากโลก

    นักแสดงนำ:หลู่ฮาน, ซูฉี, ชิเหลียง

    Code:
    Format                                   : Matroska
    Format version                           : Version 4
    File size                                : 4.11 GiB
    Duration                                 : 1 h 47 min
    Overall bit rate mode                    : Variable
    Overall bit rate                         : 5 501 kb/s
    Encoded date                             : UTC 2019-09-13 07:03:31
    Writing application                      : mkvmerge v35.0.0 ('All The Love In The World') 64-bit
    Writing library                          : libebml v1.3.9 + libmatroska v1.5.2
    
    Video
    ID                                       : 1
    Format                                   : AVC
    Format/Info                              : Advanced Video Codec
    Format profile                           : [email protected]
    Format settings                          : CABAC / 3 Ref Frames
    Format settings, CABAC                   : Yes
    Format settings, Reference frames        : 3 frames
    Codec ID                                 : V_MPEG4/ISO/AVC
    Duration                                 : 1 h 47 min
    Bit rate mode                            : Variable
    Bit rate                                 : 4 870 kb/s
    Maximum bit rate                         : 7 305 kb/s
    Width                                    : 1 920 pixels
    Height                                   : 1 080 pixels
    Display aspect ratio                     : 16:9
    Frame rate mode                          : Constant
    Frame rate                               : 24.000 FPS
    Color space                              : YUV
    Chroma subsampling                       : 4:2:0
    Bit depth                                : 8 bits
    Scan type                                : Progressive
    Bits/(Pixel*Frame)                       : 0.098
    Stream size                              : 3.63 GiB (88%)
    Writing library                          : x264 core 148 r2715 7e75228
    Encoding settings                        : cabac=1 / ref=3 / deblock=1:0:0 / analyse=0x1:0x111 / me=umh / subme=10 / psy=1 / psy_rd=1.00:0.00 / mixed_ref=1 / me_range=24 / chroma_me=1 / trellis=2 / 8x8dct=0 / cqm=0 / deadzone=21,11 / fast_pskip=1 / chroma_qp_offset=-2 / threads=8 / lookahead_threads=1 / sliced_threads=0 / nr=0 / decimate=1 / interlaced=0 / bluray_compat=0 / stitchable=1 / constrained_intra=0 / bframes=2 / b_pyramid=0 / b_adapt=2 / b_bias=0 / direct=3 / weightb=1 / open_gop=0 / weightp=2 / keyint=250 / keyint_min=24 / scenecut=0 / intra_refresh=0 / rc_lookahead=48 / rc=2pass / mbtree=1 / bitrate=4870 / ratetol=1.0 / qcomp=0.50 / qpmin=6 / qpmax=51 / qpstep=4 / cplxblur=20.0 / qblur=0.5 / vbv_maxrate=7305 / vbv_bufsize=9740 / nal_hrd=vbr / filler=0 / ip_ratio=1.40 / aq=1:1.00
    Default                                  : Yes
    Forced                                   : No
    
    Audio
    ID                                       : 2
    Format                                   : E-AC-3
    Format/Info                              : Enhanced AC-3
    Commercial name                          : Dolby Digital Plus
    Codec ID                                 : A_EAC3
    Duration                                 : 1 h 47 min
    Bit rate mode                            : Constant
    Bit rate                                 : 640 kb/s
    Channel(s)                               : 6 channels
    Channel layout                           : L R C LFE Ls Rs
    Sampling rate                            : 48.0 kHz
    Frame rate                               : 31.250 FPS (1536 SPF)
    Compression mode                         : Lossy
    Stream size                              : 490 MiB (12%)
    Language                                 : Chinese
    Service kind                             : Complete Main
    Default                                  : Yes
    Forced                                   : No
    
    Text #1
    ID                                       : 3
    Format                                   : UTF-8
    Codec ID                                 : S_TEXT/UTF8
    Codec ID/Info                            : UTF-8 Plain Text
    Duration                                 : 1 h 38 min
    Bit rate                                 : 43 b/s
    Count of elements                        : 1081
    Stream size                              : 31.5 KiB (0%)
    Language                                 : English
    Default                                  : Yes
    Forced                                   : No
    
    Text #2
    ID                                       : 4
    Format                                   : UTF-8
    Codec ID                                 : S_TEXT/UTF8
    Codec ID/Info                            : UTF-8 Plain Text
    Duration                                 : 1 h 38 min
    Bit rate                                 : 69 b/s
    Count of elements                        : 935
    Stream size                              : 50.0 KiB (0%)
    Language                                 : Arabic
    Default                                  : No
    Forced                                   : No
    
    Text #3
    ID                                       : 5
    Format                                   : UTF-8
    Codec ID                                 : S_TEXT/UTF8
    Codec ID/Info                            : UTF-8 Plain Text
    Duration                                 : 1 h 38 min
    Bit rate                                 : 41 b/s
    Count of elements                        : 930
    Stream size                              : 29.9 KiB (0%)
    Language                                 : Czech
    Default                                  : No
    Forced                                   : No
    
    Text #4
    ID                                       : 6
    Format                                   : UTF-8
    Codec ID                                 : S_TEXT/UTF8
    Codec ID/Info                            : UTF-8 Plain Text
    Duration                                 : 1 h 38 min
    Bit rate                                 : 41 b/s
    Count of elements                        : 746
    Stream size                              : 30.1 KiB (0%)
    Language                                 : Danish
    Default                                  : No
    Forced                                   : No
    
    Text #5
    ID                                       : 7
    Format                                   : UTF-8
    Codec ID                                 : S_TEXT/UTF8
    Codec ID/Info                            : UTF-8 Plain Text
    Duration                                 : 1 h 38 min
    Bit rate                                 : 43 b/s
    Count of elements                        : 875
    Stream size                              : 31.3 KiB (0%)
    Language                                 : German
    Default                                  : No
    Forced                                   : No
    
    Text #6
    ID                                       : 8
    Format                                   : UTF-8
    Codec ID                                 : S_TEXT/UTF8
    Codec ID/Info                            : UTF-8 Plain Text
    Duration                                 : 1 h 38 min
    Bit rate                                 : 69 b/s
    Count of elements                        : 853
    Stream size                              : 50.1 KiB (0%)
    Language                                 : Greek
    Default                                  : No
    Forced                                   : No
    
    Text #7
    ID                                       : 9
    Format                                   : UTF-8
    Codec ID                                 : S_TEXT/UTF8
    Codec ID/Info                            : UTF-8 Plain Text
    Duration                                 : 1 h 38 min
    Bit rate                                 : 40 b/s
    Count of elements                        : 934
    Stream size                              : 28.9 KiB (0%)
    Title                                    : Latin American
    Language                                 : Spanish
    Default                                  : No
    Forced                                   : No
    
    Text #8
    ID                                       : 10
    Format                                   : UTF-8
    Codec ID                                 : S_TEXT/UTF8
    Codec ID/Info                            : UTF-8 Plain Text
    Duration                                 : 1 h 38 min
    Bit rate                                 : 37 b/s
    Count of elements                        : 929
    Stream size                              : 27.2 KiB (0%)
    Title                                    : European
    Language                                 : Spanish
    Default                                  : No
    Forced                                   : No
    
    Text #9
    ID                                       : 11
    Format                                   : UTF-8
    Codec ID                                 : S_TEXT/UTF8
    Codec ID/Info                            : UTF-8 Plain Text
    Duration                                 : 1 h 38 min
    Bit rate                                 : 36 b/s
    Count of elements                        : 748
    Stream size                              : 26.0 KiB (0%)
    Language                                 : Finnish
    Default                                  : No
    Forced                                   : No
    
    Text #10
    ID                                       : 12
    Format                                   : UTF-8
    Codec ID                                 : S_TEXT/UTF8
    Codec ID/Info                            : UTF-8 Plain Text
    Duration                                 : 1 h 38 min
    Bit rate                                 : 47 b/s
    Count of elements                        : 934
    Stream size                              : 34.1 KiB (0%)
    Language                                 : French
    Default                                  : No
    Forced                                   : No
    
    Text #11
    ID                                       : 13
    Format                                   : UTF-8
    Codec ID                                 : S_TEXT/UTF8
    Codec ID/Info                            : UTF-8 Plain Text
    Duration                                 : 1 h 38 min
    Bit rate                                 : 60 b/s
    Count of elements                        : 935
    Stream size                              : 43.9 KiB (0%)
    Language                                 : Hebrew
    Default                                  : No
    Forced                                   : No
    
    Text #12
    ID                                       : 14
    Format                                   : UTF-8
    Codec ID                                 : S_TEXT/UTF8
    Codec ID/Info                            : UTF-8 Plain Text
    Duration                                 : 1 h 38 min
    Bit rate                                 : 103 b/s
    Count of elements                        : 935
    Stream size                              : 74.5 KiB (0%)
    Language                                 : Hindi
    Default                                  : No
    Forced                                   : No
    
    Text #13
    ID                                       : 15
    Format                                   : UTF-8
    Codec ID                                 : S_TEXT/UTF8
    Codec ID/Info                            : UTF-8 Plain Text
    Duration                                 : 1 h 38 min
    Bit rate                                 : 37 b/s
    Count of elements                        : 928
    Stream size                              : 27.4 KiB (0%)
    Language                                 : Hungarian
    Default                                  : No
    Forced                                   : No
    
    Text #14
    ID                                       : 16
    Format                                   : UTF-8
    Codec ID                                 : S_TEXT/UTF8
    Codec ID/Info                            : UTF-8 Plain Text
    Duration                                 : 1 h 38 min
    Bit rate                                 : 43 b/s
    Count of elements                        : 932
    Stream size                              : 31.1 KiB (0%)
    Language                                 : Indonesian
    Default                                  : No
    Forced                                   : No
    
    Text #15
    ID                                       : 17
    Format                                   : UTF-8
    Codec ID                                 : S_TEXT/UTF8
    Codec ID/Info                            : UTF-8 Plain Text
    Duration                                 : 1 h 38 min
    Bit rate                                 : 44 b/s
    Count of elements                        : 929
    Stream size                              : 32.1 KiB (0%)
    Language                                 : Italian
    Default                                  : No
    Forced                                   : No
    
    Text #16
    ID                                       : 18
    Format                                   : UTF-8
    Codec ID                                 : S_TEXT/UTF8
    Codec ID/Info                            : UTF-8 Plain Text
    Duration                                 : 1 h 37 min
    Bit rate                                 : 37 b/s
    Count of elements                        : 810
    Stream size                              : 26.8 KiB (0%)
    Language                                 : Japanese
    Default                                  : No
    Forced                                   : No
    
    Text #17
    ID                                       : 19
    Format                                   : UTF-8
    Codec ID                                 : S_TEXT/UTF8
    Codec ID/Info                            : UTF-8 Plain Text
    Duration                                 : 1 h 38 min
    Bit rate                                 : 47 b/s
    Count of elements                        : 927
    Stream size                              : 34.1 KiB (0%)
    Language                                 : Korean
    Default                                  : No
    Forced                                   : No
    
    Text #18
    ID                                       : 20
    Format                                   : UTF-8
    Codec ID                                 : S_TEXT/UTF8
    Codec ID/Info                            : UTF-8 Plain Text
    Duration                                 : 1 h 38 min
    Bit rate                                 : 46 b/s
    Count of elements                        : 933
    Stream size                              : 33.2 KiB (0%)
    Language                                 : Malay
    Default                                  : No
    Forced                                   : No
    
    Text #19
    ID                                       : 21
    Format                                   : UTF-8
    Codec ID                                 : S_TEXT/UTF8
    Codec ID/Info                            : UTF-8 Plain Text
    Duration                                 : 1 h 38 min
    Bit rate                                 : 39 b/s
    Count of elements                        : 762
    Stream size                              : 28.2 KiB (0%)
    Language                                 : Dutch
    Default                                  : No
    Forced                                   : No
    
    Text #20
    ID                                       : 22
    Format                                   : UTF-8
    Codec ID                                 : S_TEXT/UTF8
    Codec ID/Info                            : UTF-8 Plain Text
    Duration                                 : 1 h 38 min
    Bit rate                                 : 37 b/s
    Count of elements                        : 934
    Stream size                              : 27.3 KiB (0%)
    Language                                 : Polish
    Default                                  : No
    Forced                                   : No
    
    Text #21
    ID                                       : 23
    Format                                   : UTF-8
    Codec ID                                 : S_TEXT/UTF8
    Codec ID/Info                            : UTF-8 Plain Text
    Duration                                 : 1 h 38 min
    Bit rate                                 : 41 b/s
    Count of elements                        : 923
    Stream size                              : 30.0 KiB (0%)
    Title                                    : European
    Language                                 : Portuguese
    Default                                  : No
    Forced                                   : No
    
    Text #22
    ID                                       : 24
    Format                                   : UTF-8
    Codec ID                                 : S_TEXT/UTF8
    Codec ID/Info                            : UTF-8 Plain Text
    Duration                                 : 1 h 38 min
    Bit rate                                 : 41 b/s
    Count of elements                        : 933
    Stream size                              : 29.9 KiB (0%)
    Title                                    : Brazilian
    Language                                 : Portuguese
    Default                                  : No
    Forced                                   : No
    
    Text #23
    ID                                       : 25
    Format                                   : UTF-8
    Codec ID                                 : S_TEXT/UTF8
    Codec ID/Info                            : UTF-8 Plain Text
    Duration                                 : 1 h 38 min
    Bit rate                                 : 45 b/s
    Count of elements                        : 925
    Stream size                              : 32.7 KiB (0%)
    Language                                 : Romanian
    Default                                  : No
    Forced                                   : No
    
    Text #24
    ID                                       : 26
    Format                                   : UTF-8
    Codec ID                                 : S_TEXT/UTF8
    Codec ID/Info                            : UTF-8 Plain Text
    Duration                                 : 1 h 38 min
    Bit rate                                 : 64 b/s
    Count of elements                        : 936
    Stream size                              : 46.8 KiB (0%)
    Language                                 : Russian
    Default                                  : No
    Forced                                   : No
    
    Text #25
    ID                                       : 27
    Format                                   : UTF-8
    Codec ID                                 : S_TEXT/UTF8
    Codec ID/Info                            : UTF-8 Plain Text
    Duration                                 : 1 h 38 min
    Bit rate                                 : 42 b/s
    Count of elements                        : 746
    Stream size                              : 30.8 KiB (0%)
    Language                                 : Swedish
    Default                                  : No
    Forced                                   : No
    
    Text #26
    ID                                       : 28
    Format                                   : UTF-8
    Codec ID                                 : S_TEXT/UTF8
    Codec ID/Info                            : UTF-8 Plain Text
    Duration                                 : 1 h 38 min
    Bit rate                                 : 106 b/s
    Count of elements                        : 935
    Stream size                              : 76.7 KiB (0%)
    Language                                 : Thai
    Default                                  : No
    Forced                                   : No
    
    Text #27
    ID                                       : 29
    Format                                   : UTF-8
    Codec ID                                 : S_TEXT/UTF8
    Codec ID/Info                            : UTF-8 Plain Text
    Duration                                 : 1 h 38 min
    Bit rate                                 : 41 b/s
    Count of elements                        : 935
    Stream size                              : 29.6 KiB (0%)
    Language                                 : Turkish
    Default                                  : No
    Forced                                   : No
    
    Text #28
    ID                                       : 30
    Format                                   : UTF-8
    Codec ID                                 : S_TEXT/UTF8
    Codec ID/Info                            : UTF-8 Plain Text
    Duration                                 : 1 h 38 min
    Bit rate                                 : 61 b/s
    Count of elements                        : 933
    Stream size                              : 44.6 KiB (0%)
    Language                                 : Vietnamese
    Default                                  : No
    Forced                                   : No
    
    Text #29
    ID                                       : 31
    Format                                   : UTF-8
    Codec ID                                 : S_TEXT/UTF8
    Codec ID/Info                            : UTF-8 Plain Text
    Duration                                 : 1 h 38 min
    Bit rate                                 : 37 b/s
    Count of elements                        : 1037
    Stream size                              : 26.9 KiB (0%)
    Title                                    : Simplified
    Language                                 : Chinese
    Default                                  : No
    Forced                                   : No
    
    Text #30
    ID                                       : 32
    Format                                   : UTF-8
    Codec ID                                 : S_TEXT/UTF8
    Codec ID/Info                            : UTF-8 Plain Text
    Duration                                 : 1 h 38 min
    Bit rate                                 : 39 b/s
    Count of elements                        : 1073
    Stream size                              : 28.4 KiB (0%)
    Title                                    : Traditional
    Language                                 : Chinese
    Default                                  : No
    Forced                                   : No








    4.1 GB
    http://cornfile.com/z209fnkcgf6r
    http://www.mekafile.com/dl.php?f=RD5bffbZ1Bzq

    2.9 GB
    http://cornfile.com/kpdgwndlco47
    http://www.mekafile.com/dl.php?f=jh6cb2bZ1BrR

  2. The Following 2 Users Say Thank You to Duckload.us For This Useful Post:

    noi54 (09-15-2019), sasithep (09-20-2019)

  3. #2
    Senior Member
    Join Date
    Oct 2013
    Posts
    1,611
    Thanks
    0
    Thanked 0 Times in 0 Posts
    ขอบคุณครับ

  4. #3
    Senior Member
    Join Date
    Jun 2014
    Posts
    992
    Thanks
    0
    Thanked 0 Times in 0 Posts
    ขอบคุณครับ

+ Reply to Thread

Thread Information

Users Browsing this Thread

There are currently 1 users browsing this thread. (0 members and 1 guests)

     

Posting Permissions

  • You may not post new threads
  • You may not post replies
  • You may not post attachments
  • You may not edit your posts