+ Reply to Thread
Results 1 to 3 of 3
  1. #1
    Administrators Duckload.us's Avatar
    Join Date
    Dec 2010
    Posts
    106,925
    Thanks
    9
    Thanked 111,408 Times in 51,816 Posts

    Question [ฝรั่ง]-[มาสเตอร์] Shot Caller (2017)-อหังการ์คนคุกแดนทมิฬ [พลิกบทบาทเจมี่ แลนนิสเตอร์] นำแสดงโดย Nikolaj Coster-Waldau, Omari Hardwick, Lake Bell, Jon Bernthal-HDTV.H.264.1080p. [Rip]-[พากย์ไทย]



    เจมี่ แลนนิสเตอร์ จาก Game of Thrones สลัดคราบ คิงส์สเลเยอร์ สู่บทบาทคนคุกขาโหด!!
    หลังจากอุบัติเหตุที่ไม่ได้ตั้งใจก่อ ทำให้นักธุรกิจที่ประสบความสำเร็จอย่าง จาคอบ ฮาร์ลอน (นิโคไล คอสเตอร์-วัลดาอู) ต้องถูกส่งตัวไปรับโทษในคุก เขาต้องปรับตัวและเรียนรู้วิถีชีวิตที่ถูกคุมขัง ทั้งรุนแรงและโหดร้ายเพื่อที่จะได้มีชีวิตรอด เขาได้ค่อยสูญเสียความเป็นตัวตนของเขาไป รวมถึงความสัมพันธ์ของเขากับชีวิตในอดีตที่มีภรรยาแล ะลูกชาย เขามีครอบครัวใหม่ในคุก แก๊งคนคุกที่มีอิทธิพลแผ่ขยายไปนอกกำแพง หลังจากนั้นไม่นานมันนี่ก็ถูกปล่อยตัวออกจากคุก ก็ถูกหัวหน้าแก๊งในคุกบังคับให้ไปก่ออาชญากรรมที่ร้า ยแรงกับแก๊งค์คู่อริขาโหดที่สุดในย่านแคลิฟอร์เนียใต ้.. ทุกอย่างไม่เป็นไปอย่างที่เป็น กระบวนการที่ไร้ความปรานีในการปฏิบัติตามพันธสัญญาขอ งเขา กลายเป็นเส้นทางที่เขาที่ต้องเสียสละ ตอบแทน และหานิยามของตัวเอง…

    เสียงไทยเท่านั้น

    Format : Matroska
    Format version : Version 4
    File size : 3.79 GiB
    Duration : 1 h 54 min
    Overall bit rate : 4 745 kb/s
    Encoded date : UTC 2019-02-19 14:46:47
    Writing application : HandBrake 1.2.0 2018121700
    Writing library : Lavf58.20.100
    ErrorDetectionType : Per level 1

    Video
    ID : 1
    Format : AVC
    Format/Info : Advanced Video Codec
    Format profile : [email protected]
    Format settings : CABAC / 4 Ref Frames
    Format settings, CABAC : Yes
    Format settings, Reference frames : 4 frames
    Codec ID : V_MPEG4/ISO/AVC
    Duration : 1 h 54 min
    Bit rate : 4 427 kb/s
    Width : 1 920 pixels
    Height : 1 068 pixels
    Display aspect ratio : 16:9
    Frame rate mode : Variable
    Color space : YUV
    Chroma subsampling : 4:2:0
    Bit depth : 8 bits
    Scan type : Progressive
    Stream size : 3.54 GiB (93%)
    Writing library : x264 core 157 r2935 545de2f
    Encoding settings : cabac=1 / ref=1 / deblock=1:0:0 / analyse=0x1:0x111 / me=hex / subme=2 / psy=1 / psy_rd=1.00:0.00 / mixed_ref=0 / me_range=16 / chroma_me=1 / trellis=0 / 8x8dct=0 / cqm=0 / deadzone=21,11 / fast_pskip=1 / chroma_qp_offset=0 / threads=10 / lookahead_threads=3 / sliced_threads=0 / nr=0 / decimate=1 / interlaced=0 / bluray_compat=0 / constrained_intra=0 / bframes=3 / b_pyramid=2 / b_adapt=1 / b_bias=0 / direct=1 / weightb=1 / open_gop=0 / weightp=1 / keyint=240 / keyint_min=24 / scenecut=40 / intra_refresh=0 / rc_lookahead=10 / rc=crf / mbtree=1 / crf=18.0 / qcomp=0.60 / qpmin=0 / qpmax=69 / qpstep=4 / vbv_maxrate=20000 / vbv_bufsize=25000 / crf_max=0.0 / nal_hrd=none / filler=0 / ip_ratio=1.40 / aq=1:1.00
    Default : Yes
    Forced : No
    Color range : Limited
    Color primaries : BT.709
    Transfer characteristics : BT.709
    Matrix coefficients : BT.709

    Audio
    ID : 2
    Format : AC-3
    Format/Info : Audio Coding 3
    Commercial name : Dolby Digital
    Codec ID : A_AC3
    Duration : 1 h 54 min
    Bit rate mode : Constant
    Bit rate : 224 kb/s
    Channel(s) : 2 channels
    Channel layout : L R
    Sampling rate : 48.0 kHz
    Frame rate : 31.250 FPS (1536 SPF)
    Bit depth : 16 bits
    Compression mode : Lossy
    Delay relative to video : 9 ms
    Stream size : 183 MiB (5%)
    Title : Stereo
    Service kind : Complete Main
    Default : Yes
    Forced : No






    Download: cornfile
    http://cornfile.com/q40ndgwl5fqr
    Download: mekafile
    http://www.mekafile.com/dl.php?f=AUf607bZbK2f

  2. The Following 3 Users Say Thank You to Duckload.us For This Useful Post:

    bigbang06 (09-18-2019), kappa (10-10-2019), NaiWan (09-29-2019)

  3. #2
    Senior Member
    Join Date
    Jun 2014
    Posts
    992
    Thanks
    0
    Thanked 0 Times in 0 Posts
    ขอบคุณครับ

  4. #3
    Senior Member
    Join Date
    Jul 2012
    Posts
    6,205
    Thanks
    0
    Thanked 0 Times in 0 Posts
    ขอบคุณมากจ้า

+ Reply to Thread

Thread Information

Users Browsing this Thread

There are currently 1 users browsing this thread. (0 members and 1 guests)

     

Posting Permissions

  • You may not post new threads
  • You may not post replies
  • You may not post attachments
  • You may not edit your posts