+ Reply to Thread
Results 1 to 5 of 5
  1. #1
    Administrators Duckload.us's Avatar
    Join Date
    Dec 2010
    Posts
    106,925
    Thanks
    9
    Thanked 111,414 Times in 51,816 Posts

    Question [ฝรั่ง]ใหม่.พากย์ไทยมาสเตอร์]-Doom Annihilation [2019] ดูม 2 สงครามอสูรกลายพันธุ์-[1080p.BluRay][Sound:Eng DTS 5.1/Thai AC3 5.1:Master][SUB:Eng.PGS,SRT]



    Doom: Annihilation_(2019)
    วิดีโอเกมซีรีส์ Doom เคยถูกนำมาสร้างเป็นภาพยนตร์แล้วครั้งหนึ่งในปี 2005
    โดยมีดาราดังอย่าง Dwayne Johnson ร่วมแสดงด้วย แต่ก็ล้มเหลวทั้งในแง่รายได้และเสียงวิจารณ์
    ปี 2019 ภาพยนตร์เรื่อง Doom ถูกนำกลับมาสร้างใหม่อีกครั้งในชื่อภาคว่า Doom: Annihilation
    แต่รูปแบบเปลี่ยนไป เพราะเป็นหนังที่สร้างขึ้นในฟอร์แมตเป็นวิดีโอ-ดีวีดีโดยตรง ไม่ฉายโรงแต่อย่างใด (direct-to-video)
    .
    .
    Doom: Annihilation ยังเป็นผลงานสร้างของค่าย Universal เช่นเดิม
    เนื้อเรื่องอิงจากพล็อตของเกม Doom คือนาวิกโยธินอวกาศที่บุกไปยังฐานทัพบนดาวอังคาร
    และต้องพบกับปีศาจจากต่างโลก แต่ก็เป็นเรื่องเฉพาะที่ไม่อิงกับเกมภาคใด (และ id Software ไม่ได้มีส่วนเกี่ยวข้องกับหนังด้วย)
    มีกำหนดออกแผ่นช่วงฤดูใบไม้ร่วงปลายปี 2019!!!

    Format : Matroska
    Format version : Version 4
    File size : 4.40 GiB
    Duration : 1 h 36 min
    Overall bit rate : 6 510 kb/s
    Movie name : [email protected] Cup
    Cover : Yes
    Attachments : cover.jpg

    Video
    ID : 1
    Format : AVC
    Format/Info : Advanced Video Codec
    Format profile : [email protected]
    Format settings : CABAC / 1 Ref Frames
    Format settings, CABAC : Yes
    Format settings, Reference : 1 frame
    Format settings, GOP : M=1, N=25
    Codec ID : V_MPEG4/ISO/AVC
    Duration : 1 h 36 min
    Bit rate mode : Constant
    Bit rate : 4 500 kb/s
    Width : 1 920 pixels
    Height : 1 072 pixels
    Display aspect ratio : 16:9
    Frame rate mode : Constant
    Frame rate : 29.970 (30000/1001) FPS
    Color space : YUV
    Chroma subsampling : 4:2:0
    Bit depth : 8 bits
    Scan type : Progressive
    Bits/(Pixel*Frame) : 0.073
    Stream size : 3.04 GiB (69%)
    Title : [email protected] Cup
    Language : English
    Default : Yes
    Forced : No

    Audio #1
    ID : 2
    Format : AC-3
    Format/Info : Audio Coding 3
    Commercial name : Dolby Digital
    Codec ID : A_AC3
    Duration : 1 h 36 min
    Bit rate mode : Constant
    Bit rate : 640 kb/s
    Channel(s) : 6 channels
    Channel layout : L R C LFE Ls Rs
    Sampling rate : 44.1 kHz
    Frame rate : 28.711 FPS (1536 SPF)
    Compression mode : Lossy
    Stream size : 442 MiB (10%)
    Title : 5.1 AC3 TH 640k 442m
    Language : Thai
    Service kind : Complete Main
    Default : Yes
    Forced : No

    Audio #2
    ID : 3
    Format : DTS
    Format/Info : Digital Theater Systems
    Codec ID : A_DTS
    Duration : 1 h 36 min
    Bit rate mode : Constant
    Bit rate : 1 323 kb/s
    Channel(s) : 6 channels
    Channel layout : C L R Ls Rs LFE
    Sampling rate : 16.0 kHz
    Frame rate : 15.625 FPS (1024 SPF)
    Bit depth : 16 bits
    Compression mode : Lossy
    Stream size : 915 MiB (20%)
    Title : dts 5.1 EN 16000-914m
    Language : English
    Default : No
    Forced : No

    Text #1
    ID : 4
    Format : PGS
    Muxing mode : zlib
    Codec ID : S_HDMV/PGS
    Codec ID/Info : Picture based subtitle format used on BDs/HD-DVDs
    Duration : 1 h 33 min
    Bit rate : 46.1 kb/s
    Count of elements : 2340
    Stream size : 30.7 MiB (1%)
    Title : PGS
    Language : English
    Default : Yes
    Forced : No

    Text #2
    ID : 5
    Format : UTF-8
    Codec ID : S_TEXT/UTF8
    Codec ID/Info : UTF-8 Plain Text
    Duration : 1 h 33 min
    Bit rate : 52 b/s
    Count of elements : 1170
    Stream size : 35.7 KiB (0%)
    Title : SRT
    Language : English
    Default : No
    Forced : No

    Text #3
    ID : 6
    Format : PGS
    Muxing mode : zlib
    Codec ID : S_HDMV/PGS
    Codec ID/Info : Picture based subtitle format used on BDs/HD-DVDs
    Duration : 1 h 33 min
    Bit rate : 54.7 kb/s
    Count of elements : 2728
    Stream size : 36.7 MiB (1%)
    Title : PGS-Hearing Impaired=ผู้บกพร่องทางเสียง
    Language : English
    Default : No
    Forced : No

    Text #4
    ID : 7
    Format : UTF-8
    Codec ID : S_TEXT/UTF8
    Codec ID/Info : UTF-8 Plain Text
    Duration : 1 h 33 min
    Bit rate : 58 b/s
    Count of elements : 1364
    Stream size : 40.3 KiB (0%)
    Title : SRT-Hearing Impaired=ผู้บกพร่องทางเสียง
    Language : English
    Default : No
    Forced : No






    Download: cornfile
    http://cornfile.com/9b8vdluw5tlx
    Download: mekafile
    http://www.mekafile.com/dl.php?f=94148ac0310N

  2. The Following 8 Users Say Thank You to Duckload.us For This Useful Post:

    agg001 (10-09-2019), amorn wichian (10-09-2019), apichartdear (10-09-2019), bigbang06 (10-10-2019), gaszolineskywalker (Yesterday), Jodz14 (Yesterday), Tellmon (10-10-2019), Wesker_TOT (10-09-2019)

  3. #2
    Senior Member
    Join Date
    Dec 2013
    Posts
    1,798
    Thanks
    3,743
    Thanked 0 Times in 0 Posts
    ขอบคุณครับ...

  4. #3
    Senior Member
    Join Date
    Jun 2014
    Posts
    992
    Thanks
    0
    Thanked 0 Times in 0 Posts
    ขอบคุณครับ

  5. #4
    Senior Member
    Join Date
    Oct 2013
    Posts
    1,611
    Thanks
    0
    Thanked 0 Times in 0 Posts
    ขอบคุณครับ

  6. #5
    Senior Member
    Join Date
    Oct 2012
    Posts
    760
    Thanks
    1,697
    Thanked 0 Times in 0 Posts
    ขอบคุณครับ

+ Reply to Thread

Thread Information

Users Browsing this Thread

There are currently 1 users browsing this thread. (0 members and 1 guests)

     

Posting Permissions

  • You may not post new threads
  • You may not post replies
  • You may not post attachments
  • You may not edit your posts