+ Reply to Thread
Results 1 to 4 of 4
  1. #1
    Administrators Duckload.us's Avatar
    Join Date
    Dec 2010
    Posts
    107,912
    Thanks
    7
    Thanked 112,782 Times in 52,156 Posts

    Question [ญี่ปุ่น]-Doraemon The Movie (2019) โดราเอม่อนเดอะมูฟวี่ โนบิตะสำรวจดินแดนจันทรา -WEB-DL.H.264.720p.-[เสียงไทยโรงชัดแจ๋ว]



    . มีข่าวใหญ่ว่ายานสำรวจดวงจันทร์จับภาพเงาสีขาวได้ โนบิตะบอกว่ามันคือ “กระต่ายบนดวงจันทร์!” ทว่ากลับโดนทุกคนหัวเราะเยาะใส่... ดังนั้น โนบิตะจึงใช้ “เข็มกลัดชมรมต่างความคิด” หนึ่งในของวิเศษของโดราเอมอนเพื่อสร้างอาณาจักรกระต่ ายที่ด้านหลังของดวงจันทร์ อยู่มาวันหนึ่ง มีเด็กชายปริศนาชื่อว่า ลูกะ ย้ายมาที่โรงเรียน และมุ่งหน้าไปยังอาณาจักรกระต่ายด้วยกันกับพวกโนบิตะ ที่นั่น โนบิตะได้พบกับ เอสพอล กลุ่มเด็กที่มีพลังมหัศจรรย์โดยบังเอิญ

    ภายหลังจากที่พวกโดราเอมอนและเอสพอลสนิทสนมกันแล้ว จู่ ๆ ก็มียานอวกาศปริศนาปรากฏขึ้นมา เอสพอลทุกคนถูกจับตัวไป และลูกะเองก็ถูกจับตัวไปเพื่อช่วยให้พวกโดราเอมอนรอด พ้น! สุดท้ายแล้วพวกโนบิตะจะสามารถช่วยลูกะได้หรือไม่!?

    Format : MPEG-4
    Format profile : Base Media
    Codec ID : isom (isom/iso2/avc1/mp41)
    File size : 1.03 GiB
    Duration : 1 h 50 min
    Overall bit rate : 1 333 kb/s
    Writing application : Lavf58.26.101

    Video
    ID : 1
    Format : AVC
    Format/Info : Advanced Video Codec
    Format profile : [email protected]
    Format settings : CABAC / 4 Ref Frames
    Format settings, CABAC : Yes
    Format settings, Reference frames : 4 frames
    Codec ID : avc1
    Codec ID/Info : Advanced Video Coding
    Duration : 1 h 50 min
    Bit rate : 1 200 kb/s
    Width : 1 278 pixels
    Height : 720 pixels
    Display aspect ratio : 16:9
    Frame rate mode : Constant
    Frame rate : 23.976 (23976/1000) FPS
    Color space : YUV
    Chroma subsampling : 4:2:0
    Bit depth : 8 bits
    Scan type : Progressive
    Bits/(Pixel*Frame) : 0.054
    Stream size : 950 MiB (90%)
    Title : ISO Media file produced by Google Inc. Created on: 10/08/2019.
    Writing library : x264 core 157
    Encoding settings : cabac=1 / ref=1 / deblock=1:0:0 / analyse=0x3:0x3 / me=dia / subme=1 / psy=1 / psy_rd=1.00:0.00 / mixed_ref=0 / me_range=16 / chroma_me=1 / trellis=0 / 8x8dct=1 / cqm=0 / deadzone=21,11 / fast_pskip=1 / chroma_qp_offset=0 / threads=15 / lookahead_threads=2 / sliced_threads=0 / nr=0 / decimate=1 / interlaced=0 / bluray_compat=0 / constrained_intra=0 / bframes=3 / b_pyramid=2 / b_adapt=1 / b_bias=0 / direct=1 / weightb=1 / open_gop=0 / weightp=1 / keyint=250 / keyint_min=23 / scenecut=40 / intra_refresh=0 / rc=2pass / mbtree=0 / bitrate=1200 / ratetol=1.0 / qcomp=0.60 / qpmin=0 / qpmax=69 / qpstep=4 / cplxblur=20.0 / qblur=0.5 / ip_ratio=1.40 / pb_ratio=1.30 / aq=1:1.00
    Codec configuration box : avcC

    Audio
    ID : 2
    Format : AAC LC
    Format/Info : Advanced Audio Codec Low Complexity
    Codec ID : mp4a-40-2
    Duration : 1 h 50 min
    Duration_LastFrame : -4 ms
    Bit rate mode : Constant
    Bit rate : 128 kb/s
    Channel(s) : 2 channels
    Channel layout : L R
    Sampling rate : 48.0 kHz
    Frame rate : 46.875 FPS (1024 SPF)
    Compression mode : Lossy
    Stream size : 101 MiB (10%)
    Title : ISO Media file produced by Google Inc. Created on: 10/08/2019.
    Default : Yes
    Alternate group : 1






    Download: cornfile
    http://cornfile.com/sqv9hzetfrd7
    Download: mekafile
    http://www.mekafile.com/dl.php?f=1Zb99ec082nd

  2. The Following User Says Thank You to Duckload.us For This Useful Post:

    Wesker_TOT (10-11-2019)

  3. #2
    Senior Member
    Join Date
    Dec 2013
    Posts
    1,820
    Thanks
    3,758
    Thanked 0 Times in 0 Posts
    โอ๊วววว...

    ขอบคุณครับ...

  4. #3
    Senior Member
    Join Date
    Jun 2014
    Posts
    1,204
    Thanks
    0
    Thanked 0 Times in 0 Posts
    ขอบคุณครับ

  5. #4
    Junior Member
    Join Date
    Sep 2019
    Posts
    2
    Thanks
    0
    Thanked 0 Times in 0 Posts
    ขอบคุณมากครับ

+ Reply to Thread

Thread Information

Users Browsing this Thread

There are currently 1 users browsing this thread. (0 members and 1 guests)

     

Posting Permissions

  • You may not post new threads
  • You may not post replies
  • You may not post attachments
  • You may not edit your posts