+ Reply to Thread
Results 1 to 4 of 4
  1. #1
    Administrators Duckload.us's Avatar
    Join Date
    Dec 2010
    Posts
    107,912
    Thanks
    7
    Thanked 112,778 Times in 52,156 Posts

    Question []-[2019 Netflix] The Influence (La influencia) -HDTV.H.264.1080p. [Modified]-[Soundtrack ]




    PLOT: After moving back to her family home to care for her dying mother| a nurse haunted by her childhood memories must struggle with an evil force in the house.


    Title: The Influence (2019)
    IMDB Rating: 5.6/10 from 87 users Updated : 2019-10-11
    Genres: Horror
    Actors: Manuela Vellé s , Maggie Civantos , Alain Herná ndez , Claudia Placer , Emma Suá rez , Daniela Rubio , Ramó n Esquinas , Felipe Garcí a Vé lez , Mariana Cordero , Marta Castellote , Sofí a Tolina , Berta Sá nchez , Iratxe Emparan , Daniel Currá s , Carles Cuevas
    Director: Denis Rovira van Boekholt
    IMDB Runtime: 99
    Year: 2019
    Picture : 1920x1080 x264
    Sound : English DDP5.1
    Subtitle : English/Thai

    Format : Matroska
    Format version : Version 4
    File size : 2.26 GiB
    Duration : 1 h 42 min
    Overall bit rate mode : Variable
    Overall bit rate : 3 162 kb/s
    Movie name : CMRG
    Encoded date : UTC 2019-10-11 09:50:30
    Writing application : mkvmerge v37.0.0 ('Leave It') 64-bit
    Writing library : libebml v1.3.9 + libmatroska v1.5.2
    Cover : Yes
    Attachments : small_cover.jpg / small_cover_land.jpg / cover.jpg / cover_land.jpg

    Video
    ID : 1
    Format : AVC
    Format/Info : Advanced Video Codec
    Format profile : [email protected]
    Format settings : CABAC / 4 Ref Frames
    Format settings, CABAC : Yes
    Format settings, Reference frames : 4 frames
    Codec ID : V_MPEG4/ISO/AVC
    Duration : 1 h 42 min
    Bit rate mode : Variable
    Bit rate : 2 520 kb/s
    Maximum bit rate : 20.0 Mb/s
    Width : 1 920 pixels
    Height : 1 080 pixels
    Display aspect ratio : 16:9
    Frame rate mode : Constant
    Frame rate : 24.000 FPS
    Color space : YUV
    Chroma subsampling : 4:2:0
    Bit depth : 8 bits
    Scan type : Progressive
    Bits/(Pixel*Frame) : 0.051
    Stream size : 1.80 GiB (80%)
    Writing library : x264 core 148 r2715 7e75228
    Encoding settings : cabac=1 / ref=4 / deblock=1:0:0 / analyse=0x3:0x111 / me=umh / subme=10 / psy=1 / psy_rd=1.00:0.00 / mixed_ref=1 / me_range=120 / chroma_me=1 / trellis=2 / 8x8dct=1 / cqm=0 / deadzone=21,11 / fast_pskip=1 / chroma_qp_offset=-2 / threads=8 / lookahead_threads=2 / sliced_threads=0 / nr=0 / decimate=1 / interlaced=0 / bluray_compat=0 / stitchable=1 / constrained_intra=0 / bframes=16 / b_pyramid=2 / b_adapt=2 / b_bias=0 / direct=3 / weightb=1 / open_gop=0 / weightp=2 / keyint=240 / keyint_min=121 / scenecut=0 / intra_refresh=0 / rc_lookahead=240 / rc=crf / mbtree=1 / crf=16.0 / qcomp=0.50 / qpmin=6 / qpmax=51 / qpstep=4 / vbv_maxrate=20000 / vbv_bufsize=25000 / crf_max=0.0 / nal_hrd=vbr / filler=0 / ip_ratio=1.40 / aq=1:0.80
    Default : Yes
    Forced : No

    Audio
    ID : 2
    Format : E-AC-3
    Format/Info : Enhanced AC-3
    Commercial name : Dolby Digital Plus
    Codec ID : A_EAC3
    Duration : 1 h 42 min
    Bit rate mode : Constant
    Bit rate : 640 kb/s
    Channel(s) : 6 channels
    Channel layout : L R C LFE Ls Rs
    Sampling rate : 48.0 kHz
    Frame rate : 31.250 FPS (1536 SPF)
    Compression mode : Lossy
    Stream size : 468 MiB (20%)
    Title : English
    Language : English
    Service kind : Complete Main
    Default : Yes
    Forced : No

    Text #1
    ID : 3
    Format : UTF-8
    Codec ID : S_TEXT/UTF8
    Codec ID/Info : UTF-8 Plain Text
    Duration : 1 h 41 min
    Bit rate : 24 b/s
    Count of elements : 650
    Stream size : 17.9 KiB (0%)
    Title : English
    Language : English
    Default : No
    Forced : No

    Text #2
    ID : 4
    Format : UTF-8
    Codec ID : S_TEXT/UTF8
    Codec ID/Info : UTF-8 Plain Text
    Duration : 1 h 38 min
    Bit rate : 60 b/s
    Count of elements : 659
    Stream size : 43.9 KiB (0%)
    Title : Thai
    Language : Thai
    Default : Yes
    Forced : Yes







    Download: cornfile
    http://cornfile.com/7bxftu4ml899
    Download: mekafile
    http://www.mekafile.com/dl.php?f=babc41c0aJe5

  2. The Following User Says Thank You to Duckload.us For This Useful Post:

    Wesker_TOT (10-17-2019)

  3. #2
    Senior Member
    Join Date
    Dec 2013
    Posts
    1,820
    Thanks
    3,758
    Thanked 0 Times in 0 Posts
    ͺسѺ...

  4. #3
    Senior Member
    Join Date
    Jul 2012
    Posts
    6,208
    Thanks
    0
    Thanked 0 Times in 0 Posts
    ͺسҡ

  5. #4
    Senior Member
    Join Date
    Jun 2014
    Posts
    1,204
    Thanks
    0
    Thanked 0 Times in 0 Posts
    ͺسѺ

Thread Information

Users Browsing this Thread

There are currently 1 users browsing this thread. (0 members and 1 guests)

     

Posting Permissions

  • You may not post new threads
  • You may not post replies
  • You may not post attachments
  • You may not edit your posts