+ Reply to Thread
Results 1 to 2 of 2
  1. #1
    Administrators Duckload.us's Avatar
    Join Date
    Dec 2010
    Posts
    107,802
    Thanks
    7
    Thanked 112,657 Times in 52,124 Posts

    Angry [ฝรั่ง]-[ เสียงไทยมาสเตอร์มาแล้ว ] I Kill Giants 2017 : สาวน้อยผู้ล้มยักษ์ 1080p.BluRay.x264 [ พากย์ไทยมาสเตอร์ + อังกฤษ DTS ][ บรรยายอังกฤษ ]-Blu-ray.H.264.1080p. [Modified]-[พากย์ไทย]



    “I KILL GIANTS สาวน้อย ผู้ล้มยักษ์” ผลงานแฟนตาซีเรื่องใหม่ของ ”คริส โคลัมบัส” ผู้ให้กำเนิดพ่อมดน้อย แฮรี่ พอตเตอร์ เวอร์ชั่นภาพยนตร์ (Harry Potter and the Sorcerer's Stone (2001)
    ซึ่งสร้างโดยดัดแปลงมาจากนิยายภาพขายดีในชื่อเดียวกั นที่ได้รับการยกย่องให้เป็น 1 ใน 10 นิยายภาพยอดเยี่ยมทั่วโลก กลับมาพาทั้งโลกเดินทางสู่การต่อสู้ครั้งใหม่แห่งโลก ภาพยนตร์
    “I KILL GIANTS” บอกเล่าเรื่องราวของ “บาบาร่า ทอร์สัน” (เมดิสัน วูล์ฟ) สาวน้อยนักล่ายักษ์ ที่มักจะใช้เวลาว่างไปกับการการเสาะหายักษ์สายพันธ์ต ่าง ๆ ที่บุกรุกมาจากโลกมืด
    เพื่อฆ่ายักษ์ทุกตัวที่ย่างกรายเข้ามาในเมืองของเธอ แต่แล้วเมื่อเธอได้พบกับ “มอลลี่” (รับบทโดย โซอี้ ซัลดานา) อาจารย์ที่ปรึกษาคนใหม่ของโรงเรียน ที่ทำให้เธอได้เรียนรู้กับความกล้าที่จะเผชิญหน้ากับ บางอย่างที่จะเปลี่ยนชีวิตของเธอไปตลอดกาล

    Format : Matroska
    Format version : Version 4
    File size : 7.98 GiB
    Duration : 1 h 46 min
    Overall bit rate : 10.7 Mb/s
    Encoded date : UTC 2019-10-17 19:54:21
    Writing application : mkvmerge v6.0.0 ('Coming Up For Air') built on Jan 20 2013 09:52:00
    Writing library : libebml v1.3.0 + libmatroska v1.4.0
    Cover : Yes
    Attachments : cover

    Video
    ID : 1
    Format : AVC
    Format/Info : Advanced Video Codec
    Format profile : [email protected]
    Format settings : CABAC / 5 Ref Frames
    Format settings, CABAC : Yes
    Format settings, Reference frames : 5 frames
    Codec ID : V_MPEG4/ISO/AVC
    Duration : 1 h 46 min
    Bit rate : 8 787 kb/s
    Width : 1 920 pixels
    Height : 808 pixels
    Display aspect ratio : 2.40:1
    Frame rate mode : Constant
    Frame rate : 23.976 FPS
    Color space : YUV
    Chroma subsampling : 4:2:0
    Bit depth : 8 bits
    Scan type : Progressive
    Bits/(Pixel*Frame) : 0.236
    Stream size : 6.37 GiB (80%)
    Writing library : x264 core 155 r2901 7d0ff22
    Encoding settings : cabac=1 / ref=5 / deblock=1:0:0 / analyse=0x3:0x133 / me=umh / subme=7 / psy=1 / psy_rd=1.00:0.00 / mixed_ref=1 / me_range=16 / chroma_me=1 / trellis=1 / 8x8dct=1 / cqm=0 / deadzone=21,11 / fast_pskip=0 / chroma_qp_offset=-2 / threads=25 / lookahead_threads=4 / sliced_threads=0 / nr=0 / decimate=1 / interlaced=0 / bluray_compat=0 / constrained_intra=0 / bframes=3 / b_pyramid=2 / b_adapt=1 / b_bias=0 / direct=1 / weightb=1 / open_gop=0 / weightp=2 / keyint=250 / keyint_min=23 / scenecut=40 / intra_refresh=0 / rc_lookahead=40 / rc=2pass / mbtree=1 / bitrate=8787 / ratetol=1.0 / qcomp=0.60 / qpmin=0 / qpmax=69 / qpstep=4 / cplxblur=20.0 / qblur=0.5 / ip_ratio=1.40 / aq=1:1.00
    Language : English
    Default : Yes
    Forced : No
    Statistics Tags Issue : mkvmerge v8.3.0 ('Over the Horizon') 64bit 2018-05-16 04:23:02 / mkvmerge v6.0.0 ('Coming Up For Air') built on Jan 20 2013 09:52:00 2019-10-17 19:54:21
    FromStats_BitRate : 8779747
    FromStats_Duration : 01:46:23.179000000
    FromStats_FrameCount : 153043
    FromStats_StreamSize : 7005337197

    Audio #1
    ID : 2
    Format : AC-3
    Format/Info : Audio Coding 3
    Commercial name : Dolby Digital
    Codec ID : A_AC3
    Duration : 1 h 46 min
    Bit rate mode : Constant
    Bit rate : 448 kb/s
    Channel(s) : 6 channels
    Channel layout : L R C LFE Ls Rs
    Sampling rate : 44.1 kHz
    Frame rate : 28.711 FPS (1536 SPF)
    Bit depth : 16 bits
    Compression mode : Lossy
    Stream size : 341 MiB (4%)
    Title : Thai Master
    Language : Thai
    Service kind : Complete Main
    Default : Yes
    Forced : Yes

    Audio #2
    ID : 3
    Format : DTS
    Format/Info : Digital Theater Systems
    Codec ID : A_DTS
    Duration : 1 h 46 min
    Bit rate mode : Constant
    Bit rate : 1 509 kb/s
    Channel(s) : 6 channels
    Channel layout : C L R Ls Rs LFE
    Sampling rate : 48.0 kHz
    Frame rate : 93.750 FPS (512 SPF)
    Bit depth : 24 bits
    Compression mode : Lossy
    Stream size : 1.12 GiB (14%)
    Title : BlurayDTS
    Language : English
    Default : No
    Forced : No
    Statistics Tags Issue : mkvmerge v8.3.0 ('Over the Horizon') 64bit 2018-05-16 04:23:02 / mkvmerge v6.0.0 ('Coming Up For Air') built on Jan 20 2013 09:52:00 2019-10-17 19:54:21
    FromStats_BitRate : 1508999
    FromStats_Duration : 01:46:22.155000000
    FromStats_FrameCount : 598327
    FromStats_StreamSize : 1203833924

    Text
    ID : 4
    Format : VobSub
    Muxing mode : zlib
    Codec ID : S_VOBSUB
    Codec ID/Info : Picture based subtitle format used on DVDs
    Language : English
    Default : Yes
    Forced : No

    Menu
    00:00:00.000 : en:00:00:00.000
    00:08:40.353 : en:00:08:40.353
    00:16:09.802 : en:00:16:09.802
    00:20:35.609 : en:00:20:35.609
    00:32:25.318 : en:00:32:25.318
    00:51:53.819 : en:00:51:53.819
    01:04:16.144 : en:01:04:16.144
    01:16:04.977 : en:01:16:04.977
    01:23:37.012 : en:01:23:37.012
    01:37:49.906 : en:01:37:49.906





    8.0 GB
    Download: cornfile
    http://cornfile.com/0741a2z34prz
    Download: mekafile
    meka อัพไม่ได้ครับ หนังค่าย M

    2.1 GB
    Download: cornfile
    http://cornfile.com/nwami1z9wtex

  2. The Following 5 Users Say Thank You to Duckload.us For This Useful Post:

    apichartdear (10-18-2019), dude (10-19-2019), noi54 (10-19-2019), smakha (10-21-2019), Tellmon (10-22-2019)

  3. #2
    Senior Member
    Join Date
    Jun 2014
    Posts
    1,189
    Thanks
    0
    Thanked 0 Times in 0 Posts
    ขอบคุณครับ

+ Reply to Thread

Thread Information

Users Browsing this Thread

There are currently 1 users browsing this thread. (0 members and 1 guests)

     

Posting Permissions

  • You may not post new threads
  • You may not post replies
  • You may not post attachments
  • You may not edit your posts