+ Reply to Thread
Results 1 to 3 of 3
  1. #1
    Administrators Duckload.us's Avatar
    Join Date
    Dec 2010
    Posts
    107,912
    Thanks
    7
    Thanked 112,782 Times in 52,156 Posts

    Question [* ͹! *] 3 from Hell (2019) [ҡ:ѧ][SUB:][1080i/p] [§ѧ 5.1] [ + ѧ] [Ѻ PGS Ѵ]




    ͧҡ͹ͧ The Devils Rejects µФѡ˴ 3 Baby, Otis Captain Spaulding
    ҡͺ Firefly СѺҧ͹ѭ ҧ˴ա
    ͹ʴ Sherri Moon Zombie, Bill Moseley, Sid Haig...!!!

    Code:
    Format                                   : Matroska
    Format version                           : Version 4
    File size                                : 2.62 GiB
    Duration                                 : 1 h 55 min
    Overall bit rate                         : 3 244 kb/s
    Movie name                               : 3.from.Hell.2019.UNRATED.PROPER.1080p.BluRay.AC3.x264-SkiesIT
    Encoded date                             : UTC 2019-10-18 01:01:38
    Writing application                      : mkvmerge v38.0.0 ('The Silent Type') 64-bit
    Writing library                          : libebml v1.3.9 + libmatroska v1.5.2
    Cover                                    : Yes
    Attachments                              : small_cover.jpg /  small_cover_land.jpg / cover.jpg / cover_land.jpg / small_cover.jpg /  small_cover_land.jpg / cover.jpg / cover_land.jpg
    
    Video
    ID                                       : 1
    Format                                   : AVC
    Format/Info                              : Advanced Video Codec
    Format profile                           : [email protected]
    Format settings                          : CABAC / 4 Ref Frames
    Format settings, CABAC                   : Yes
    Format settings, Reference frames        : 4 frames
    Codec ID                                 : V_MPEG4/ISO/AVC
    Duration                                 : 1 h 55 min
    Bit rate                                 : 2 500 kb/s
    Width                                    : 1 920 pixels
    Height                                   : 1 040 pixels
    Display aspect ratio                     : 1.85:1
    Frame rate mode                          : Constant
    Frame rate                               : 23.976 (23976/1000) FPS
    Color space                              : YUV
    Chroma subsampling                       : 4:2:0
    Bit depth                                : 8 bits
    Scan type                                : Progressive
    Bits/(Pixel*Frame)                       : 0.052
    Stream size                              : 2.02 GiB (77%)
    Title                                    : 3.from.Hell.2019.UNRATED.PROPER.1080p.BluRay.AC3.x264-SkiesIT
    Writing library                          : x264 core 152 r2851M ba24899
    Encoding settings                        : cabac=1 / ref=4 /  deblock=1:-1:-1 / analyse=0x3:0x113 / me=umh / subme=9 / psy=1 /  psy_rd=1.00:0.15 / mixed_ref=1 / me_range=24 / chroma_me=1 / trellis=2 /  8x8dct=1 / cqm=0 / deadzone=21,11 / fast_pskip=1 / chroma_qp_offset=-3 /  threads=32 / lookahead_threads=4 / sliced_threads=0 / nr=0 / decimate=1  / interlaced=0 / bluray_compat=0 / constrained_intra=0 / bframes=3 /  b_pyramid=2 / b_adapt=2 / b_bias=0 / direct=3 / weightb=1 / open_gop=0 /  weightp=2 / keyint=250 / keyint_min=25 / scenecut=40 / intra_refresh=0 /  rc_lookahead=50 / rc=2pass / mbtree=1 / bitrate=2500 / ratetol=1.0 /  qcomp=0.60 / qpmin=0 / qpmax=69 / qpstep=4 / cplxblur=20.0 / qblur=0.5 /  vbv_maxrate=31250 / vbv_bufsize=31250 / nal_hrd=none / filler=0 /  ip_ratio=1.40 / aq=3:1.00
    Language                                 : English
    Default                                  : Yes
    Forced                                   : No
    
    Audio
    ID                                       : 2
    Format                                   : AC-3
    Format/Info                              : Audio Coding 3
    Commercial name                          : Dolby Digital
    Codec ID                                 : A_AC3
    Duration                                 : 1 h 55 min
    Bit rate mode                            : Constant
    Bit rate                                 : 640 kb/s
    Channel(s)                               : 6 channels
    Channel layout                           : L R C LFE Ls Rs
    Sampling rate                            : 48.0 kHz
    Frame rate                               : 31.250 FPS (1536 SPF)
    Compression mode                         : Lossy
    Stream size                              : 530 MiB (20%)
    Title                                    : English AC3 5.1
    Language                                 : English
    Service kind                             : Complete Main
    Default                                  : No
    Forced                                   : No
    
    Text #1
    ID                                       : 3
    Format                                   : UTF-8
    Codec ID                                 : S_TEXT/UTF8
    Codec ID/Info                            : UTF-8 Plain Text
    Duration                                 : 1 h 46 min
    Bit rate                                 : 117 b/s
    Count of elements                        : 1375
    Stream size                              : 91.8 KiB (0%)
    Title                                    : Thai SRT
    Language                                 : Thai
    Default                                  : Yes
    Forced                                   : No
    
    Text #2
    ID                                       : 4
    Format                                   : VobSub
    Muxing mode                              : zlib
    Codec ID                                 : S_VOBSUB
    Codec ID/Info                            : Picture based subtitle format used on DVDs
    Duration                                 : 1 h 46 min
    Bit rate                                 : 12.0 kb/s
    Count of elements                        : 1375
    Stream size                              : 9.12 MiB (0%)
    Title                                    : Thai 1080p
    Language                                 : Thai
    Default                                  : No
    Forced                                   : No
    
    Text #3
    ID                                       : 5
    Format                                   : VobSub
    Muxing mode                              : zlib
    Codec ID                                 : S_VOBSUB
    Codec ID/Info                            : Picture based subtitle format used on DVDs
    Duration                                 : 1 h 46 min
    Bit rate                                 : 12.0 kb/s
    Count of elements                        : 1375
    Stream size                              : 9.13 MiB (0%)
    Title                                    : Thai 1080p Yellow
    Language                                 : Thai
    Default                                  : No
    Forced                                   : No
    
    Text #4
    ID                                       : 6
    Format                                   : VobSub
    Muxing mode                              : zlib
    Codec ID                                 : S_VOBSUB
    Codec ID/Info                            : Picture based subtitle format used on DVDs
    Duration                                 : 1 h 46 min
    Bit rate                                 : 14.3 kb/s
    Count of elements                        : 1375
    Stream size                              : 10.9 MiB (0%)
    Title                                    : Thai 1080p [BIG]
    Language                                 : Thai
    Default                                  : No
    Forced                                   : No
    
    Text #5
    ID                                       : 7
    Format                                   : PGS
    Muxing mode                              : zlib
    Codec ID                                 : S_HDMV/PGS
    Codec ID/Info                            : Picture based subtitle format used on BDs/HD-DVDs
    Duration                                 : 1 h 46 min
    Bit rate                                 : 50.8 kb/s
    Count of elements                        : 2750
    Stream size                              : 38.6 MiB (1%)
    Title                                    : Thai PGS
    Language                                 : Thai
    Default                                  : No
    Forced                                   : No
    
    Text #6
    ID                                       : 8
    Format                                   : PGS
    Muxing mode                              : zlib
    Codec ID                                 : S_HDMV/PGS
    Codec ID/Info                            : Picture based subtitle format used on BDs/HD-DVDs
    Duration                                 : 1 h 46 min
    Bit rate                                 : 50.8 kb/s
    Count of elements                        : 2750
    Stream size                              : 38.6 MiB (1%)
    Title                                    : Thai PGS Yellow
    Language                                 : Thai
    Default                                  : No
    Forced                                   : No
    
    Text #7
    ID                                       : 9
    Format                                   : PGS
    Muxing mode                              : zlib
    Codec ID                                 : S_HDMV/PGS
    Codec ID/Info                            : Picture based subtitle format used on BDs/HD-DVDs
    Duration                                 : 1 h 46 min
    Bit rate                                 : 63.0 kb/s
    Count of elements                        : 2750
    Stream size                              : 47.9 MiB (2%)
    Title                                    : Thai PGS [BIG]
    Language                                 : Thai
    Default                                  : No
    Forced                                   : No
    
    Text #8
    ID                                       : 10
    Format                                   : PGS
    Muxing mode                              : zlib
    Codec ID                                 : S_HDMV/PGS
    Codec ID/Info                            : Picture based subtitle format used on BDs/HD-DVDs
    Duration                                 : 1 h 52 min
    Bit rate                                 : 40.0 kb/s
    Count of elements                        : 3224
    Stream size                              : 32.2 MiB (1%)
    Title                                    : English-PGS
    Language                                 : English
    Default                                  : No
    Forced                                   : No











    Download: cornfile
    http://cornfile.com/kj6g20l30hcl
    Download: mekafile
    http://www.mekafile.com/dl.php?f=4Qf8b2c0pXzM

  2. #2
    Senior Member
    Join Date
    Dec 2013
    Posts
    1,820
    Thanks
    3,758
    Thanked 0 Times in 0 Posts
    ...

    ͺسѺ...

  3. #3
    Senior Member
    Join Date
    Jun 2014
    Posts
    1,204
    Thanks
    0
    Thanked 0 Times in 0 Posts
    ͺسѺ

Thread Information

Users Browsing this Thread

There are currently 1 users browsing this thread. (0 members and 1 guests)

     

Posting Permissions

  • You may not post new threads
  • You may not post replies
  • You may not post attachments
  • You may not edit your posts