+ Reply to Thread
Results 1 to 2 of 2
  1. #1
    Administrators Duckload.us's Avatar
    Join Date
    Dec 2010
    Posts
    107,912
    Thanks
    7
    Thanked 112,782 Times in 52,156 Posts

    Question Adventures of Dally & Spanky 2019 เพื่อนรักต่างสายพันธุ์ [พากย์:Eng 5.1][SUB:ซับไทยแปล][1080p]



    แอดดี้และเอลล่าเป็นพี่น้องวัยรุ่นต่างบิดามารดา แทบไม่มีอะไรเหมือนกันและไม่ค่อยผูกพันกันสักเท่าไหร ่ เมื่อแอดดี้อายุได้ 17 ปี เธอสูญเสียพ่อและอยู่ในภาวะที่โศกเศร้า มิตรภาพที่ไม่น่าจะเกิดขึ้นระหว่างสุนัขของครอบครัว (ดัลลีย์) กับลูกม้า (สแปงกี้) ที่เธอได้รับมรดกมาจากพ่อที่เสียชีวิตนำให้สองพี่สอง ได้มาใกล้ชิดกัน ขณะพยายามทำให้อารมณ์เศร้าของแอดดี้ดีขึ้น เธอทำตามคำแนะนำของครูด้วยการหางานอดิเรกใหม่ทำ ด้วยการฝึกดัลลีย์กับสแปงกี้เพื่อแสดงโชว์ความสามารถ ที่โรงเรียน แต่โชคไม่ดีที่ความสำเร็จของดัลลีย์และสแปงกี้ในการแ สดงโชว์ความสามารถที่โรงเรียนมัธยมปลายไม่เพียงพอที่ จะโน้มน้าวให้ครอบครัวเก็บสแปงกี้ไว้ เพราะเป็นภาระหนักด้านค่าใช้จ่าย แต่แอดดี้คิดหาทางออกได้... เธอส่งวีดีโอการฝึกของดัลลีย์กับสแปงกี้ไปที่รายการแ สดงความสามารถทางทีวี ตอนนี้ถ้าไม่ได้ก็เสีย... และอะไรก็เกิดขึ้นได้ทั้งนั้น...

    Code:
    General
    Unique ID                                : 273112254140763534166701676113927430310 (0xCD7781C07476F30073C73A5B659D60A6)
    Complete name                            : E:\mix download\Adventures.of.Dally.and.Spanky.2019.1080p.WEB-DL.DD5.1.H264-FGT\Adventures.of.Dally.and.Spanky.2019.1080p.WEB-DL.DD5.1.H264.mkv
    Format                                   : Matroska
    Format version                           : Version 4
    File size                                : 3.29 GiB
    Duration                                 : 1 h 24 min
    Overall bit rate                         : 5 598 kb/s
    Movie name                               : Adventures.of.Dally.and.Spanky.2019.1080p.WEB-DL.DD5.1.H264-FGT
    Encoded date                             : UTC 2019-10-18 03:56:37
    Writing application                      : mkvmerge v38.0.0 ('The Silent Type') 64-bit
    Writing library                          : libebml v1.3.9 + libmatroska v1.5.2
    Cover                                    : Yes
    Attachments                              : small_cover.jpg / small_cover_land.jpg / cover.jpg / cover_land.jpg
    
    Video
    ID                                       : 1
    Format                                   : AVC
    Format/Info                              : Advanced Video Codec
    Format profile                           : [email protected]
    Format settings                          : CABAC / 4 Ref Frames
    Format settings, CABAC                   : Yes
    Format settings, Reference frames        : 4 frames
    Codec ID                                 : V_MPEG4/ISO/AVC
    Duration                                 : 1 h 24 min
    Bit rate                                 : 5 193 kb/s
    Width                                    : 1 920 pixels
    Height                                   : 1 080 pixels
    Display aspect ratio                     : 16:9
    Frame rate mode                          : Constant
    Frame rate                               : 23.976 FPS
    Color space                              : YUV
    Chroma subsampling                       : 4:2:0
    Bit depth                                : 8 bits
    Scan type                                : Progressive
    Bits/(Pixel*Frame)                       : 0.104
    Stream size                              : 3.05 GiB (93%)
    Title                                    : Adventures.of.Dally.and.Spanky.2019.1080p.WEB-DL.DD5.1.H264-FGT
    Language                                 : English
    Default                                  : Yes
    Forced                                   : No
    Color range                              : Limited
    Color primaries                          : BT.709
    Transfer characteristics                 : BT.709
    Matrix coefficients                      : BT.709
    
    Audio
    ID                                       : 2
    Format                                   : AC-3
    Format/Info                              : Audio Coding 3
    Commercial name                          : Dolby Digital
    Codec ID                                 : A_AC3
    Duration                                 : 1 h 24 min
    Bit rate mode                            : Constant
    Bit rate                                 : 384 kb/s
    Channel(s)                               : 6 channels
    Channel layout                           : L R C LFE Ls Rs
    Sampling rate                            : 48.0 kHz
    Frame rate                               : 31.250 FPS (1536 SPF)
    Bit depth                                : 16 bits
    Compression mode                         : Lossy
    Stream size                              : 231 MiB (7%)
    Title                                    : Adventures.of.Dally.and.Spanky.2019.1080p.WEB-DL.DD5.1.H264-FGT
    Language                                 : English
    Service kind                             : Complete Main
    Default                                  : Yes
    Forced                                   : No
    
    Text #1
    ID                                       : 3
    Format                                   : PGS
    Muxing mode                              : zlib
    Codec ID                                 : S_HDMV/PGS
    Codec ID/Info                            : Picture based subtitle format used on BDs/HD-DVDs
    Duration                                 : 1 h 24 min
    Bit rate                                 : 28.7 kb/s
    Count of elements                        : 2420
    Stream size                              : 17.3 MiB (1%)
    Language                                 : Thai
    Default                                  : Yes
    Forced                                   : No
    
    Text #2
    ID                                       : 4
    Format                                   : PGS
    Muxing mode                              : zlib
    Codec ID                                 : S_HDMV/PGS
    Codec ID/Info                            : Picture based subtitle format used on BDs/HD-DVDs
    Duration                                 : 1 h 24 min
    Bit rate                                 : 27.4 kb/s
    Count of elements                        : 2420
    Stream size                              : 16.5 MiB (0%)
    Language                                 : Thai
    Default                                  : No
    Forced                                   : No
    
    Menu
    00:00:00.000                             : en:1
    00:05:28.495                             : en:2
    00:10:28.294                             : en:3
    00:16:24.357                             : en:4
    00:22:08.908                             : en:5
    00:27:46.745                             : en:6
    00:33:30.255                             : en:7
    00:39:49.592                             : en:8
    00:43:16.173                             : en:9
    00:50:44.620                             : en:10
    00:55:06.089                             : en:11
    01:00:39.839                             : en:12
    01:04:37.868                             : en:13
    01:11:29.111                             : en:14
    01:13:23.099                             : en:15
    01:20:13.175                             : en:16





    Download: cornfile
    http://cornfile.com/7wufsqbi1map
    Download: mekafile
    http://www.mekafile.com/dl.php?f=0ae6f4c0pXt0

  2. The Following User Says Thank You to Duckload.us For This Useful Post:

    amorn wichian (10-18-2019)

  3. #2
    Senior Member
    Join Date
    Jun 2014
    Posts
    1,204
    Thanks
    0
    Thanked 0 Times in 0 Posts
    ขอบคุณครับ

+ Reply to Thread

Thread Information

Users Browsing this Thread

There are currently 1 users browsing this thread. (0 members and 1 guests)

     

Posting Permissions

  • You may not post new threads
  • You may not post replies
  • You may not post attachments
  • You may not edit your posts