+ Reply to Thread
Results 1 to 4 of 4
  1. #1
    Administrators Duckload.us's Avatar
    Join Date
    Dec 2010
    Posts
    107,802
    Thanks
    7
    Thanked 112,657 Times in 52,124 Posts

    Question (.ҡ)-Creed II (2018) ʹѡ 2-绹͡Fox[1080p.BluRay][ Sound:Eng AC3/Thai AC3 5.1:Master][SUB:Thai/Eng.PGS,SRT]



    ͪԵͧ ⴹ 㹨شҵͧѺ͡ѺӤѭ֧ 2 ͧǡѹ 駵ͧǽ֡ҧǴ
    ͤ׹ѧ¹ҧ˭ªԵ ѧͧ༪ԭ˹ҡѺ觷ǢͧѺ ͺǢͧʹյ
    ֡˭ѧҶ֧觵֧´зҷ ա ҧѺʹ ⴹ ѧ ͤ ź ״Ѵ§ҧ
    ҤӵͺͧԵ 'äӤѭ餹ء

    Code:
    Format                      : Matroska
    Format version              : Version 4
    File size                   : 4.54 GiB
    Duration                    : 2 h 10 min
    Overall bit rate            : 4 986 kb/s
    Movie name                  : Creed.II.2018.1080p.BluRay.x264_❇GOLD CUP™
    Cover                       : Yes
    Attachments                 : cover.jpg
    
    Video
    ID                          : 1
    Format                      : AVC
    Format/Info                 : Advanced Video Codec
    Format profile              : [email protected]
    Format settings             : CABAC / 1 Ref Frames
    Format settings, CABAC      : Yes
    Format settings, Reference  : 1 frame
    Format settings, GOP        : M=1, N=25
    Codec ID                    : V_MPEG4/ISO/AVC
    Duration                    : 2 h 10 min
    Bit rate mode               : Constant
    Bit rate                    : 4 000 kb/s
    Width                       : 1 920 pixels
    Height                      : 800 pixels
    Display aspect ratio        : 2.40:1
    Frame rate mode             : Constant
    Frame rate                  : 29.970 (30000/1001) FPS
    Color space                 : YUV
    Chroma subsampling          : 4:2:0
    Bit depth                   : 8 bits
    Scan type                   : Progressive
    Bits/(Pixel*Frame)          : 0.087
    Stream size                 : 3.63 GiB (80%)
    Title                       : Creed.II.2018.1080p.BluRay.x264_❇GOLD CUP™
    Language                    : English
    Default                     : Yes
    Forced                      : No
    
    Audio #1
    ID                          : 2
    Format                      : AC-3
    Format/Info                 : Audio Coding 3
    Commercial name             : Dolby Digital
    Codec ID                    : A_AC3
    Duration                    : 2 h 10 min
    Bit rate mode               : Constant
    Bit rate                    : 320 kb/s
    Channel(s)                  : 6 channels
    Channel layout              : L R C LFE Ls Rs
    Sampling rate               : 44.1 kHz
    Frame rate                  : 28.711 FPS (1536 SPF)
    Compression mode            : Lossy
    Stream size                 : 298 MiB (6%)
    Title                       : 5.1 AC3 TH 320k 297m
    Language                    : Thai
    Service kind                : Complete Main
    Default                     : Yes
    Forced                      : No
    
    Audio #2
    ID                          : 3
    Format                      : AC-3
    Format/Info                 : Audio Coding 3
    Commercial name             : Dolby Digital
    Codec ID                    : A_AC3
    Duration                    : 2 h 10 min
    Bit rate mode               : Constant
    Bit rate                    : 640 kb/s
    Channel(s)                  : 6 channels
    Channel layout              : L R C LFE Ls Rs
    Sampling rate               : 44.1 kHz
    Frame rate                  : 28.711 FPS (1536 SPF)
    Compression mode            : Lossy
    Stream size                 : 595 MiB (13%)
    Title                       : 5.1 AC3 EN 640k 595m
    Language                    : English
    Service kind                : Complete Main
    Default                     : No
    Forced                      : No
    
    Text #1
    ID                          : 4
    Format                      : PGS
    Muxing mode                 : zlib
    Codec ID                    : S_HDMV/PGS
    Codec ID/Info               : Picture based subtitle format used on BDs/HD-DVDs
    Duration                    : 2 h 10 min
    Bit rate                    : 46.5 kb/s
    Count of elements           : 3150
    Stream size                 : 43.4 MiB (1%)
    Title                       : PGS
    Language                    : Thai
    Default                     : Yes
    Forced                      : No
    
    Text #2
    ID                          : 5
    Format                      : UTF-8
    Codec ID                    : S_TEXT/UTF8
    Codec ID/Info               : UTF-8 Plain Text
    Duration                    : 2 h 10 min
    Bit rate                    : 111 b/s
    Count of elements           : 1575
    Stream size                 : 106 KiB (0%)
    Title                       : SRT
    Language                    : Thai
    Default                     : No
    Forced                      : No
    
    Text #3
    ID                          : 6
    Format                      : PGS
    Muxing mode                 : zlib
    Codec ID                    : S_HDMV/PGS
    Codec ID/Info               : Picture based subtitle format used on BDs/HD-DVDs
    Duration                    : 2 h 3 min
    Bit rate                    : 42.0 kb/s
    Count of elements           : 3072
    Stream size                 : 36.9 MiB (1%)
    Title                       : PGS
    Language                    : English
    Default                     : No
    Forced                      : No
    
    Text #4
    ID                          : 7
    Format                      : UTF-8
    Codec ID                    : S_TEXT/UTF8
    Codec ID/Info               : UTF-8 Plain Text
    Duration                    : 2 h 3 min
    Bit rate                    : 50 b/s
    Count of elements           : 1536
    Stream size                 : 46.0 KiB (0%)
    Title                       : SRT
    Language                    : English
    Default                     : No
    Forced                      : No
    
    Text #5
    ID                          : 8
    Format                      : UTF-8
    Codec ID                    : S_TEXT/UTF8
    Codec ID/Info               : UTF-8 Plain Text
    Duration                    : 2 h 9 min
    Bit rate                    : 56 b/s
    Count of elements           : 1778
    Stream size                 : 53.1 KiB (0%)
    Title                       : SRT-Hearing Impaired=麡ͧҧ§
    Language                    : English
    Default                     : No
    Forced                      : No




    Fox Ѻѧ
    Download: cornfile
    http://cornfile.com/poldjuy8z3vm
    Download: mekafile
    http://www.mekafile.com/dl.php?f=SCedeec0sA41

  2. The Following 5 Users Say Thank You to Duckload.us For This Useful Post:

    amorn wichian (10-21-2019), Jodz14 (10-24-2019), markzooms (10-24-2019), noi54 (11-01-2019), smakha (10-25-2019)

  3. #2
    Senior Member
    Join Date
    Jul 2012
    Posts
    6,198
    Thanks
    0
    Thanked 0 Times in 0 Posts
    ͺسҡ

  4. #3
    Junior Member
    Join Date
    Oct 2019
    Posts
    2
    Thanks
    3
    Thanked 0 Times in 0 Posts
    ͺسѺ

  5. #4
    Senior Member
    Join Date
    Jun 2014
    Posts
    1,189
    Thanks
    0
    Thanked 0 Times in 0 Posts
    ͺسѺ

Thread Information

Users Browsing this Thread

There are currently 1 users browsing this thread. (0 members and 1 guests)

     

Posting Permissions

  • You may not post new threads
  • You may not post replies
  • You may not post attachments
  • You may not edit your posts